1 сезон

1 сезон

iTunes

1

КиноПоиск HD

Кинопоиск HD

iTunes

13

1 сезон

RePack

30

Новинка

ВАЖНО

ИГРА 18+

pack

RePack

MK11
pack

Легкие деньги

RePack

jed

RePack

fifa19

RePack

RDR2

RePack

NEED FOR SPEED™ PAYBACK

4 сезон

9 сезон

Бесстыжие 9 сезон

Все сериалы

все сериалы на PB.wtf

RePack

FAR CRY 5
  
Magnet ссылка

Несущая смерть / Tamara (Джереми Хафт) [2005 г., Мистика, ужасы, триллер, HDRip, DUB] pb.wtf

Несущая смерть через торрент pb.wtf

Размер: 769 MB | Добавлен: 8 лет 4 мес. назад | Торрент скачан:277 раз
Скачать  

27-11-2012 19:24 Несущая смерть Скачать торрент  

Несущая смерть / Tamara

Год выпуска: 2005
Страна: США, Канада / Armada Pictures, City Lights Pictures
Жанр: Мистика, ужасы, триллер
Продолжительность: 01:33:59
Перевод: Дубляж

Режиссер: Джереми Хафт

Бюджет: $3 500 000
Премьера в мире: 12 мая 2005



В ролях: Лес Карлсон, Кэрол Лазар, Джордж Чувало, Джой Бушел, Дженна Деван, Мэттью Марсден, Чэд Фауст, Джил Хакоэн, Клодетт Минк, Мелисса Элиас
Описание: 17-летняя Тамара Райли — изгой в своем классе. Жестокие одноклассники считают ее чудной и странной, а учитель английского, в которого Тамара тайно влюблена, не обращает на нее ни малейшего внимания. В довершение всех своих несчастий Тамара пишет критическую статью о двух одноклассницах в школьной газете.
Когда их месть случайно приводит к гибели Тамары, они закапывают ее тело и дают клятву друг другу никогда не говорить о происшедшем. Правда, никто не знает, что при жизни Тамара увлекалась «черной» магией и мистикой, и теперь, благодаря одному древнему заклятью, она восстанет из мертвых…
Вскоре Тамара возвращается в мир живых в образе обворожительной и сексуальной красавицы. Ее жертвы беспомощны перед ее коварными прихотями, ее безвольная добыча готова подчиняться ей во всем. Тамара начинает свою кровавую месть, неся изысканную и жестокую смерть своим обидчикам…

Качество: HDRip
Формат: AVI
Видео кодек: XviD
Аудио кодек: MP3
Видео: 704x384 (1.83:1), 25 fps, XviD MPEG-4 ~1951731845 kbps avg, 1993092.00 bit/pixel
Аудио: 44.100 kHz, MPEG Layer 3, 2 ch, ~128.00 kbps avg

[/url] [/url]










Полное имя : C:DownloadTorrentНесущая смерть Tamara (2005) HDRipНесущая смерть.avi
Формат : AVI
Формат/Информация : Audio Video Interleave
Размер файла : 769 Мбайт
Продолжительность : 1 ч. 33 м.
Общий поток : 1143 Кбит/сек
Программа кодирования : MEncoder SVN-r22963
Библиотека кодирования : MPlayer

Видео
Идентификатор : 0
Формат : MPEG-4 Visual
Профиль формата : Simple@L1
Параметр BVOP формата : Нет
Параметр QPel формата : Нет
Параметр GMC формата : Без точки перехода
Параметр матрицы формата : Default (H.263)
Идентификатор кодека : XVID
Идентификатор кодека/Подсказка : XviD
Продолжительность : 1 ч. 33 м.
Битрейт : 961 Кбит/сек
Ширина : 704 пикселя
Высота : 384 пикселя
Соотношение сторон : 1,85:1
Частота кадров : 25,000 кадров/сек
Цветовое пространство : YUV
Субдискретизация насыщенности : 4:2:0
Битовая глубина : 8 бит
Тип развёртки : Прогрессивная
Метод сжатия : С потерями
Бит/(Пиксели*Кадры) : 0.142
Размер потока : 646 Мбайт (84%)
Библиотека кодирования : Lavc51.40.2

Аудио
Идентификатор : 1
Формат : MPEG Audio
Версия формата : Version 1
Профиль формата : Layer 3
Идентификатор кодека : 55
Идентификатор кодека/Подсказка : MP3
Продолжительность : 1 ч. 33 м.
Вид битрейта : Постоянный
Битрейт : 128 Кбит/сек
Каналы : 2 канала
Частота : 44,1 КГц
Метод сжатия : С потерями
Размер потока : 86,1 Мбайт (11%)
Выравнивание : Соединение по промежуткам
Библиотека кодирования : LAME3.97


Несущая смерть скачать торрент


pb.wtf



Скачать Несущая смерть через торрент http://2.firepic.org/2/images/2012-11/27/dg60gf1aly96.jpg Скачать фильм Несущая смерть через торрент бесплантно в хорошем качестве Описание: 17-летняя Тамара Райли — изгой в своем классе. Жестокие одноклассники считают ее чудной и странной, а учитель английского, в ... 9.5 10 4
Info! Золотая раздача, скачанное не засчитывается.
Торрент: Зарегистрирован [2012-11-27 19:24] · скачан: 277 раз
Статус: √ проверено
Размер: 769 MB
Как cкачать? Как скачать Несущая смерть через торрент | UTorrent

% Раздел Тема Автор DL S | L
Фильмы 2001-2005 [ 1.6 GB ] Несущая смерть / Tamara [2005 ... HDRip] kycher1972 Скачать
1 | 0

28-11-2019 20:33  

Отключить всю рекламу на сайте


27-11-2012 20:22 Несущая смерть Скачать торрент  

автору зачет за работу!
Год выпуска: 2005
обожаю всякую мистику и ужасы, а этот фильм как то пропустил.pb.wtf



    Дорогой пользователь! Огромная просьба, поблагодарите релизера, оцените раздачу и оставьте свои комментарий, если Вы скачали Несущая смерть через торрент бесплатно! Внесите свою лепту в развитие PiratBit!
    Комментировать посты могут только пользователи прошедшие не сложную регистрацию
    Показать сообщения:    

    Несущая смерть через торрент
    Скачать бесплатно Несущая смерть
    Несущая смерть скачать торрент
    Несущая смерть смотреть онлайн
    Cкачать фильм Несущая смерть бесплатно
    Несущая смерть скачать торрент в хорошем качестве
    Несущая смерть смотреть онлайн бесплатно в хорошем качестве


    Вы не можете начинать темы
    Вы не можете отвечать на сообщения
    Вы не можете редактировать свои сообщения
    Вы не можете удалять свои сообщения
    Вы не можете голосовать в опросах
    Вы не можете прикреплять файлы к сообщениям
    Вы можете скачивать файлы