2 сезон

iTunes

MVO

1

2 сезон

iTunes

iTunes

1 сезон

RePack

30

Новинка

ВАЖНО

ИГРА 18+

pack

RePack

MK11
pack

Легкие деньги

RePack

jed

RePack

fifa19

RePack

RDR2

RePack

NEED FOR SPEED™ PAYBACK

4 сезон

9 сезон

Бесстыжие 9 сезон

Все сериалы

все сериалы на PB.wtf

RePack

FAR CRY 5

Anonymous, доброе утро, мы не успеваем собрать деньги на оплату серверов за декабрь и январь, помогите нам пожалуйста в это трудное время. В качестве благодарности мы отключим Вам всю рекламу на сайте (укажите свой ник в строку Ваше имя)!

×
  
Magnet ссылка

Пушистые против Зубастых / The Outback (Дэвид Лин / David Lean) [2012, мультфильм, приключения, семейный, DVD9] R5 pb.wtf

Пушистые против Зубастых через торрент pb.wtf

Размер: 5.8 GB | Добавлен: 8 лет 1 мес. назад | Торрент скачан:208 раз
Скачать  

28-11-2012 13:34 Пушистые против Зубастых Скачать торрент  


Пушистые против Зубастых / The Outback
«Zero to Hero»
Страна: Корея Южная, США
Студия: Animation Picture Company, Digiart Productions, Lotte Entertainment
Жанр: мультфильм, приключения, семейный
Год выпуска: 2012
Мировая премьера: 12 января 2012
Российская премьера: 25 октября 2012, 3D
Дата выхода DVD: 27 ноября 2012
Дата выхода Blu-Ray: 27 ноября 2012
Продолжительность: 01:22:02
Перевод: Профессиональный (дублированный) [Лицензия]
Cубтитры: нет
Оригинальная аудиодорожка: нет
Режиссер: Дэвид Лин / David Lean
Роли озвучивали: Чарли Бьюли, Алан Камминг, Тим Карри, Крис Эджерли, Эрик Лопез, Норм МакДональд, Брэт МакКензи, Нолан Норт, Филип Проктор, Дженни Пулос
Роли дублировали: Владимир Рыбальченко, Александр Воронов, Татьяна Шарко, Александр Дасевич
Описание: Нелегко живется на свете если ты белый, а все остальные — серые. Так и белый коала Джонни страдает от своей особенности. А если ты особенный — то тебе, ясное дело, прямая дорога в цирк! Но любовь публики недолговечна, особенно, если кроме цвета шерсти, тебе нечем похвастаться. Джонни мечтает стать крутым суперегероем и ему представится такой шанс! Для этого всего лишь нужно разогнать стаю кровожадных псов, опрокинуть горы, перебраться через пропасть, перехитрить гигантских змей, приручить тасманского дьявола и победить гигантского крокодила! И что же в награду? Ну, конечно, любовь прекрасной дамы!
Бонусы: нет

Релиз группы:
Качество: DVD9 R5
Формат: DVD-Video
Видео кодек: MPEG2
Аудио кодек: AC3
Видео: PAL 16:9 (720x576(0.900)) MPEG Video, 25,000 кадр/сек, 9000 Кбит/сек
Аудио: Russian (Dolby AC3, 6 ch) 448 Кбит/сек, 48,0 КГц



Title: Pushistye.protiv.Zubastyh.2012.DVD9
Size: 5.80 Gb ( 6 085 232,00 KBytes ) - DVD-9
Enabled regions: 1, 2, 3, 4, 5, 6, 7, 8

VTS_01 :
Play Length: 01:22:02
Video: PAL 16:9 (720x576) VBR, Auto Letterboxed
Audio:
Russian (Dolby AC3, 6 ch)

* Menus Information *

VIDEO_TS Menu
Video:
PAL 16:9 (720x576) VBR
Auto Letterboxed
Audio:
Not specified (Dolby AC3, 2 ch)
Russian Language Unit :
Title Menu

VTS_01 Menu
Video:
PAL 16:9 (720x576) VBR
Auto Letterboxed
Audio:
Not specified (Dolby AC3, 2 ch)
Russian Language Unit :
Root Menu
Общее
Полное имя : J:Новинки 2012Pushistye.protiv.Zubastyh.2012.DVD9VIDEO_TSVTS_01_1.VOB
Формат : MPEG-PS
Размер файла : 1024 Мбайт
Продолжительность : 14 м.
Общий поток : 9980 Кбит/сек

Видео
Идентификатор : 224 (0xE0)
Формат : MPEG Video
Версия формата : Version 2
Профиль формата : Main@Main
Параметр BVOP формата : Да
Параметр матрицы формата : Выборочная
Параметр GOP формата : Variable
Продолжительность : 14 м.
Битрейт : 9333 Кбит/сек
Максимальный битрейт : 9000 Кбит/сек
Ширина : 720 пикселей
Высота : 576 пикселей
Соотношение сторон : 16:9
Частота кадров : 25,000 кадров/сек
Стандарт вещания : PAL
Цветовое пространство : YUV
Субдискретизация насыщенности : 4:2:0
Битовая глубина : 8 бит
Тип развёртки : Чересстрочная
Порядок развёртки : Верхнее поле первое
Метод сжатия : С потерями
Бит/(Пиксели*Кадры) : 0.900
Размер потока : 958 Мбайт (94%)

Аудио
Идентификатор : 189 (0xBD)-128 (0x80)
Формат : AC-3
Формат/Информация : Audio Coding 3
Расширение режима : CM (complete main)
Параметр Endianness формата : Big
Режим смешивания : DVD-Video
Продолжительность : 14 м.
Вид битрейта : Постоянный
Битрейт : 448 Кбит/сек
Каналы : 6 каналов
Расположение каналов : Front: L C R, Side: L R, LFE
Частота : 48,0 КГц
Битовая глубина : 16 бит
Метод сжатия : С потерями
Размер потока : 46,0 Мбайт (4%)










pb.wtf



Скачать Пушистые против Зубастых через торрент http://i47.fastpic.ru/big/2012/1128/f1/682a7e6599b2b92edb47d3ce552a52f1.jpg Скачать фильм Пушистые против Зубастых через торрент бесплантно в хорошем качестве Описание: Нелегко живется на свете если ты белый, а все остальные — серые. Так и белый коала Джонни страдает от своей особенности. А если ... 10 10 2
Info! Золотая раздача, скачанное не засчитывается.
Торрент: Зарегистрирован [2012-11-28 13:34] · скачан: 208 раз
Статус: √ проверено
Размер: 5.8 GB
Как cкачать? Как скачать Пушистые против Зубастых через торрент | UTorrent

28-11-2019 20:33  

Отключить всю рекламу на сайте

    Дорогой пользователь! Огромная просьба, поблагодарите релизера, оцените раздачу и оставьте свои комментарий, если Вы скачали Пушистые против Зубастых через торрент бесплатно! Внесите свою лепту в развитие PiratBit!
    Комментировать посты могут только пользователи прошедшие не сложную регистрацию
    Показать сообщения:    

    Пушистые против Зубастых через торрент
    Скачать бесплатно Пушистые против Зубастых
    Пушистые против Зубастых скачать торрент
    Пушистые против Зубастых смотреть онлайн
    Cкачать фильм Пушистые против Зубастых бесплатно
    Пушистые против Зубастых скачать торрент в хорошем качестве
    Пушистые против Зубастых смотреть онлайн бесплатно в хорошем качестве


    Вы не можете начинать темы
    Вы не можете отвечать на сообщения
    Вы не можете редактировать свои сообщения
    Вы не можете удалять свои сообщения
    Вы не можете голосовать в опросах
    Вы не можете прикреплять файлы к сообщениям
    Вы можете скачивать файлы