Ссылка на приватное зеркало нашего сайта всего за 1$. Внимание количество ограничено!!!

2 сезон

iTunes

1 сезон

1

iTunes

iTunes

iTunes

1 сезон

RePack

30

ИГРА 18+

pack

ВАЖНО

!!Акция!!

Alien_RageХит недели

RePack

MK11
pack

Забери бонус

RePack

jed

!!Акция!!

Alien_Rage

RePack

fifa19

RePack

Assassins Creed: Odyssey

RePack

NEED FOR SPEED™ PAYBACK

4 сезон

9 сезон

Бесстыжие 9 сезон

Все сериалы

все сериалы на PB.wtf

RePack

FAR CRY 5
  

Черная смерть / Black Death (Кристофер Смит) [2010 г., Исторический, Драма, Детектив, Боевик, Мистика, HDRip, MVO, лицензия] pb.wtf

Черная смерть через торрент pb.wtf

Качают: 1 [ 0 KB/s ]
Размер: 746 MB | Добавлен: 7 лет 10 мес. назад | Торрент скачан:268 раз
Скачать  

28-11-2012 13:50 Черная смерть Скачать торрент  

Черная смерть / Black Death

Год выпуска: 2010
Страна: Германия, Великобритания
Жанр: Исторический, Драма, Детектив, Боевик, Мистика
Продолжительность: 01:41:37
Перевод: Профессиональный многоголосый, Лицензия

Режиссер: Кристофер Смит

Бюджет: $10 800 000
Премьера в мире: 26 мая 2010



В ролях: Шон Бин, Кэрис Ван Хаутен, Эдди Редмэйн, Кимберли Никсон, Дэвид Уорнер, Энди Найман, Джон Линч, Тим МакИннерни, Джонни Харрис
Описание: Средневековая Англия попала под тень Черной смерти. В этом апокалиптическом мире, заполненном страхом и суеверием, собираются несколько монахов, объединенных одной целью — выследить того, кто способен возвращать к жизни умерших от чумы
Качество: HDRip
Формат: AVI
Видео кодек: XviD
Аудио кодек: MP3
Видео: 688x288 (2.39:1), 24.000 fps, XviD build 50 ~890 kbps avg, 0.19 bit/pixel
Аудио: 48 kHz, MPEG Layer 3, 2 ch, ~128.00 kbps avg

[/url] [/url]
[/url]
[/url]
[/url]
[/url]
[/url]
[/url]





Полное имя : C:DownloadTorrentЧерная смерть Black Death (2010) HDRipChernaja.smert.2010.P.HDRip[MVO_R5_L].avi
Формат : AVI
Формат/Информация : Audio Video Interleave
Размер файла : 746 Мбайт
Продолжительность : 1 ч. 41 м.
Общий поток : 1028 Кбит/сек
Программа кодирования : VirtualDubMod 1.5.10.1 (build 2366/release)
Библиотека кодирования : VirtualDubMod build 2366/release

Видео
Идентификатор : 0
Формат : MPEG-4 Visual
Профиль формата : Advanced Simple@L5
Параметр BVOP формата : 1
Параметр QPel формата : Нет
Параметр GMC формата : Без точки перехода
Параметр матрицы формата : Default (MPEG)
Идентификатор кодека : XVID
Идентификатор кодека/Подсказка : XviD
Продолжительность : 1 ч. 41 м.
Битрейт : 891 Кбит/сек
Ширина : 688 пикселей
Высота : 288 пикселей
Соотношение сторон : 2,40:1
Частота кадров : 24,000 кадра/сек
Цветовое пространство : YUV
Субдискретизация насыщенности : 4:2:0
Битовая глубина : 8 бит
Тип развёртки : Прогрессивная
Метод сжатия : С потерями
Бит/(Пиксели*Кадры) : 0.187
Размер потока : 646 Мбайт (87%)
Библиотека кодирования : XviD 1.2.1 (UTC 2008-12-04)

Аудио
Идентификатор : 1
Формат : MPEG Audio
Версия формата : Version 1
Профиль формата : Layer 3
Режим : Joint stereo
Расширение режима : MS Stereo
Идентификатор кодека : 55
Идентификатор кодека/Подсказка : MP3
Продолжительность : 1 ч. 41 м.
Вид битрейта : Постоянный
Битрейт : 128 Кбит/сек
Каналы : 2 канала
Частота : 48,0 КГц
Метод сжатия : С потерями
Размер потока : 92,9 Мбайт (12%)
Выравнивание : Соединение по промежуткам
Продолжительность промежутка : 42 мс. (1,00 видеокадр)
Время предзагрузки промежутка : 504 мс.


Черная смерть скачать торрент


pb.wtf



Скачать Черная смерть через торрент http://2.firepic.org/2/images/2012-11/28/jo32mfes1yln.jpg Скачать фильм Черная смерть через торрент бесплантно в хорошем качестве Описание: Средневековая Англия попала под тень Черной смерти. В этом апокалиптическом мире, заполненном страхом и суеверием, собираются ... 10 10 7
Info! Золотая раздача, скачанное не засчитывается.
Торрент: Зарегистрирован [2012-11-28 13:50] · скачан: 268 раз
Статус: √ проверено
Размер: 746 MB
Как cкачать? Как скачать Черная смерть через торрент | qTorrent

% Раздел Тема Автор DL S | L
Фильмы (HD 720p, 1080p) (48-60 fps) [ 8.48 GB ] Черная смерть / Black Death [2010 BDRip 720p by mimok MVO] 60fps mimok Скачать
1 | 0
Документальные фильмы и телепередачи [ 597 MB ] Черная мамба: поцелуй смерти / Black Mamba: kiss of death [2014 документальный HDTVRip одноголосый закадровый] Бумер Скачать
1 | 0
Фильмы [HD 720p, 1080p] (Хороший звук DUB, MVO) [ 9.26 GB ] Женщина в черном 2: Ангел смерти / The Woman in Black 2: Angel of Death [2014 BDRip 1080p] DUB Ворон Скачать
1 | 0
Фильмы 2014 [DVDrip, WEB-DLRip, HDrip] [ 1.43 GB ] Женщина в черном 2: Ангел смерти / The Woman in Black 2: Angel of Death [2014 HDRip] DUB Ворон Скачать
1 | 0
Фильмы (DVD фильмы) [ 3.94 GB ] Женщина в черном 2: Ангел смерти / The Woman in Black 2: Angel of Death [2014 DVD5] R5 voovaz Скачать
1 | 0
Фильмы без перевода [ 1.56 GB ] Женщина в черном 2: Ангел смерти / The Woman in Black 2: Angel of Death [2014 HDRip Оригинал] makarevich Скачать
1 | 0
Фильмы 2010 [ 1.68 GB ] Черная смерть / Black Death [2010 BDRip DUB ] sasha2345678 Скачать
1 | 0

28-11-2019 20:33  

Отключить всю рекламу на сайте

28-11-2012 15:20 Черная смерть Скачать торрент  

при не большом бюджете фильм окозался отличным!!Всем любителям исторического жанра советую!pb.wtf



16-12-2012 09:18 Черная смерть Скачать торрент  

Шон Бин здесь не умирает?pb.wtf



    Дорогой пользователь! Огромная просьба, поблагодарите релизера, оцените раздачу и оставьте свои комментарий, если Вы скачали Черная смерть через торрент бесплатно! Внесите свою лепту в развитие PiratBit!
    Комментировать посты могут только пользователи прошедшие не сложную регистрацию
    Показать сообщения:    

    Черная смерть через торрент
    Скачать бесплатно Черная смерть
    Черная смерть скачать торрент
    Черная смерть смотреть онлайн
    Cкачать фильм Черная смерть бесплатно
    Черная смерть скачать торрент в хорошем качестве
    Черная смерть смотреть онлайн бесплатно в хорошем качестве


    Вы не можете начинать темы
    Вы не можете отвечать на сообщения
    Вы не можете редактировать свои сообщения
    Вы не можете удалять свои сообщения
    Вы не можете голосовать в опросах
    Вы не можете прикреплять файлы к сообщениям
    Вы можете скачивать файлы