MEGA SALE -50% FORZA HORIZON 4 ULTIMATE+ВСЕ DLC+ОНЛАЙН всего за 599р. 299 руб. (супер цена). Внимание количество ограничено!!!

iTunes

1+1

iTunes

мы

iTunes

1

iTunes

Чернобыль

iTunes

Ральф против интернета

Лицензия

ПШазам

Лицензия

Игра престолов

Лицензия

30
pack

ВАЖНО

!!Акция!!

Alien_RageХит недели

RePack

Resident Evil 21

ИГРА 18+

pack

RePack

Metro:Exodus

!!Акция!!

Alien_Rage

RePack

fifa19

RePack

Assassins Creed: Odyssey

RePack

NEED FOR SPEED™ PAYBACK

3 сезон

9 сезон

Бесстыжие 9 сезон

Все сериалы

все сериалы на PB.wtf

RePack

FAR CRY 5
Ребята, катастрофически не хватает 7730р. для оплаты серверов за АВГУСТ (всвязи с блокировками трафик упал в 3 раза), 1-2р., выручайте.
  

Маркиза / Marquise (Вера Бельмон) [1997 г., драма, история, комедия, DVDRip, VO] pb.wtf

Маркиза через торрент pb.wtf

Раздают: 1 [ 0 KB/s ]
Размер: 1.37 GB | Добавлен: 6 лет 9 мес. назад | Торрент скачан:51 раз
Скачать  

28-11-2012 13:56 Маркиза Скачать торрент  

Маркиза / Marquise

Год выпуска: 1997
Страна: Франция, Италия, Испания, Швейцария
Жанр: драма, история, комедия
Продолжительность: 01:59:00
Перевод: Любительский одноголосый

Режиссер: Вера Бельмон
Продюссер: Вера Бельмон, Дж. Дэвид Уильямс, Хосе Мария Кунильес
Сценарий: Жан-Франсуа Жослен, Вера Бельмон, Марсель Больё

Премьера в мире: 20 августа 1997

зрителям, достигшим 16 лет

http://www.kinopoisk.ru/film/15074/

В ролях: Софи Марсо, Бернар Жиродо, Ламбер Вильсон, Патрик Тимсит, Тьерри Лермитт, Анемон, Ремо Джироне, Жорж Вильсон, Марианн Басле, Франк де ла Персонн

Описание: Фильм рассказывает историю бурной жизни «маркизы» Дю Пак — дамы, имевшей дурную репутацию во время правления короля Людовика ХIV.

Красавица и куртизанка, выросшая в нищете, сумела обольстить огромное количество знатных мужчин и достичь высочайшего положения в обществе. Даже Мольер и Расин, как, впрочем, и сам «Король — Солнце» — Людовик ХIV — не смогли устоять перед ее очарованием.

Качество: DVDRip
Формат: AVI
Видео кодек: XviD
Аудио кодек: AC3
Видео: MPEG-4 Visual, XviD, 1447 Кбит/сек, 576х432 пикселя, 23,976 кадра/сек
Аудио#1: AC-3, 192 Кбит/сек, 2 канала, 48,0 КГц





Формат : AVI
Формат/Информация : Audio Video Interleave
Размер файла : 1,37 Гбайт
Продолжительность : 1 ч. 59 м.
Общий поток : 1645 Кбит/сек
Программа кодирования : VirtualDubMod 1.5.4.1 (build 2178/release)
Библиотека кодирования : VirtualDubMod build 2178/release

Видео
Идентификатор : 0
Формат : MPEG-4 Visual
Профиль формата : Advanced Simple@L5
Параметр BVOP формата : 1
Параметр QPel формата : Нет
Параметр GMC формата : Без точки перехода
Параметр матрицы формата : Выборочная
Идентификатор кодека : XVID
Идентификатор кодека/Подсказка : XviD
Продолжительность : 1 ч. 59 м.
Битрейт : 1447 Кбит/сек
Ширина : 576 пикселей
Высота : 432 пикселя
Соотношение сторон : 4:3
Частота кадров : 23,976 кадра/сек
Цветовое пространство : YUV
Субдискретизация насыщенности : 4:2:0
Битовая глубина : 8 бит
Тип развёртки : Прогрессивная
Метод сжатия : С потерями
Бит/(Пиксели*Кадры) : 0.243
Размер потока : 1,20 Гбайт (88%)
Библиотека кодирования : XviD 1.2.0.dev47 (UTC 2006-11-01)

Аудио
Идентификатор : 1
Формат : AC-3
Формат/Информация : Audio Coding 3
Расширение режима : CM (complete main)
Параметр Endianness формата : Big
Идентификатор кодека : 2000
Продолжительность : 1 ч. 59 м.
Вид битрейта : Постоянный
Битрейт : 192 Кбит/сек
Каналы : 2 канала
Расположение каналов : Front: L R
Частота : 48,0 КГц
Битовая глубина : 16 бит
Метод сжатия : С потерями
Размер потока : 163 Мбайт (12%)
Выравнивание : Разделение по промежуткам
Продолжительность промежутка : 96 мс. (2,30 видеокадра)
Время предзагрузки промежутка : 96 мс.
Язык : Russian

pb.wtf



Скачать Маркиза через торрент http://pic.kartinco.top/images/1/4o129pvb5e.jpg Скачать фильм Маркиза через торрент бесплантно в хорошем качестве Описание: Фильм рассказывает историю бурной жизни «маркизы» Дю Пак — дамы, имевшей дурную репутацию во время правления короля Людовика ... 5 10 1
Info! Золотая раздача, скачанное не засчитывается.
Торрент: Зарегистрирован [2012-11-28 13:56] · скачан: 51 раз
Статус: √ проверено
Размер: 1.37 GB
Как cкачать? Как скачать Маркиза через торрент | qTorrent

% Раздел Тема Автор DL S | L
Фильмы [HD 720p, 1080p] (Хороший звук DUB, MVO) [ 14.75 GB ] Маркиза / Marquise [1997 BDRip 1080p by msltel] MVO msltel Скачать
2 | 0
Фильмы [HD 720p, 1080p] (Хороший звук DUB, MVO) [ 5.71 GB ] Маркиза / Marquise [1997 BDRip 720p by msltel] MVO msltel Скачать
3 | 0
Фильмы 2013 [DVDrip, WEB-DLRip, HDrip] [ 1.46 GB ] Анжелика маркиза ангелов / Angélique marquise des anges [2013 DVDRip [ - ] Ворон Скачать
1 | 0
Фильмы 2013 [DVDrip, WEB-DLRip, HDrip] [ 2.18 GB ] Анжелика маркиза ангелов / Angélique marquise des anges [2013 HDRip ""] coc900 Скачать
1 | 0
Фильмы (DVD фильмы) [ 6.46 GB ] Анжелика маркиза ангелов / Angélique marquise des anges [2013 DVD9] R5 voovaz Скачать
1 | 0
Классические порно фильмы [ 838 MB ] Маркиза Порно / La marquise Von Porno [1977 All sexAnalLesboStraponOrgyHeyri VHSRip лицензия] Shaidi Скачать
1 | 0


>> Регистрируемся здесь <<






Отзывы и комментарии о схеме читаем и пишем здесь: ---> Отзывы и комментарии о схеме

Новые благодарочки в телеграм довольных пользователей:
скриншот   скриншот   скриншот   скриншот   скриншот
    Дорогой пользователь! Огромная просьба, поблагодарите релизера, оцените раздачу и оставьте свои комментарий, если Вы скачали Маркиза через торрент бесплатно! Внесите свою лепту в развитие PiratBit!
    Комментировать посты могут только пользователи прошедшие не сложную регистрацию
    Показать сообщения:    

    Маркиза через торрент
    Скачать бесплатно Маркиза
    Маркиза скачать торрент
    Маркиза смотреть онлайн
    Cкачать фильм Маркиза бесплатно
    Маркиза скачать торрент в хорошем качестве
    Маркиза смотреть онлайн бесплатно в хорошем качестве


    Вы не можете начинать темы
    Вы не можете отвечать на сообщения
    Вы не можете редактировать свои сообщения
    Вы не можете удалять свои сообщения
    Вы не можете голосовать в опросах
    Вы не можете прикреплять файлы к сообщениям
    Вы можете скачивать файлы