1 сезон

1 сезон

iTunes

1

КиноПоиск HD

Кинопоиск HD

iTunes

13

1 сезон

RePack

30

Новинка

ВАЖНО

ИГРА 18+

pack

RePack

MK11
pack

Легкие деньги

RePack

jed

RePack

fifa19

RePack

RDR2

RePack

NEED FOR SPEED™ PAYBACK

4 сезон

9 сезон

Бесстыжие 9 сезон

Все сериалы

все сериалы на PB.wtf

RePack

FAR CRY 5
  
Magnet ссылка

Кровавая работа / Blood Work (Клинт Иствуд) [2002 г., боевик, триллер, драма, криминал, детектив, HDRip-AVC, MVO] pb.wtf

Кровавая работа через торрент pb.wtf

Размер: 1.94 GB | Добавлен: 8 лет 4 мес. назад | Торрент скачан:59 раз
Скачать  

29-11-2012 06:54 Кровавая работа Скачать торрент  

Кровавая работа / Blood Work

Год выпуска: 2002
Страна: США [sup] [/sup]
Жанр: боевик, триллер, драма, криминал, детектив
Продолжительность: 01:50:29
Перевод: Профессиональный многоголосый

Режиссер: Клинт Иствуд
Продюссер: Клинт Иствуд, Джуди Хойт, Роберт Лоренц
Сценарий: Брайан Хелгеленд, Майкл Коннелли

Бюджет: $50 000 000
Премьера в мире: 6 августа 2002



В ролях: Клинт Иствуд, Джефф Дэниелс, Анжелика Хьюстон, Ванда Де Джисус, Тина Лиффорд, Пол Родригез, Дилан Уолш, Мэйсон Лучеро, Джерри Бекер, Рик Хоффман

Описание: Терри МакКалеб — бывший агент ФБР, специализирующийся на серийных убийствах, перенес операцию по пересадке сердца и теперь находится на пенсии, теша себя починкой своей лодки. Но его талант вновь востребован, и он получает новое задание. А нанимает его некто Граселия Риверс для того, чтобы он расследовал причину гибели ее сестры, сердце которой и было пересажено Терри.Расследование выявило очень интересные факты: сестра Граселии была убита, и убийство было обставлено как инцидент во время ограбления. А убийцей, возможно, был человек, за которым Терри охотился многие годы. Непростая работа для престарелого и имеющего проблемы с сердцем шпиона, который предполагал совсем иначе распорядиться своим временем.

Качество: HDRip-AVC
Формат: MKV
Видео кодек: H.264
Аудио кодек: AC3
Видео: 720x 304 (2,35:1),23,976fps, AVC MPEG-4 (H.264), ~2067 kbps avg,0.394 bit/pixel
Аудио: 48 kHz, AC3 Dolby Digital, 3/2 (L,C,R,l,r) + LFE ch, ~448 kbps avg


Автор рипа:





Общее
Уникальный идентификатор : 207735065866439799010040332419455448538 (0x9C485181B05139428BB96B5DB4DAF5DA)
Полное имя : E:ТоррентыPiratbitKrovavaya rabota .mkv
Формат : Matroska
Версия формата : Version 2
Размер файла : 1,94 Гбайт
Продолжительность : 1 ч. 50 м.
Общий поток : 2510 Кбит/сек
Дата кодирования : UTC 2012-11-28 20:03:28
Программа кодирования : mkvmerge v4.4.0 ('Die Wiederkehr') сборка от Oct 31 2010 21:52:48
Библиотека кодирования : libebml v1.0.0 + libmatroska v1.0.0

Видео
Идентификатор : 1
Формат : AVC
Формат/Информация : Advanced Video Codec
Профиль формата : High@L4.1
Параметр CABAC формата : Да
Параметр ReFrames формата : 8 кадров
Режим смешивания : Header stripping
Идентификатор кодека : V_MPEG4/ISO/AVC
Продолжительность : 1 ч. 50 м.
Битрейт : 2067 Кбит/сек
Ширина : 720 пикселей
Высота : 304 пикселя
Соотношение сторон : 2,35:1
Частота кадров : 23,976 кадра/сек
Цветовое пространство : YUV
Субдискретизация насыщенности : 4:2:0
Битовая глубина : 8 бит
Тип развёртки : Прогрессивная
Бит/(Пиксели*Кадры) : 0.394
Размер потока : 1,55 Гбайт (80%)
Библиотека кодирования : x264 core 125 r2200 999b753
Настройки программы : cabac=1 / ref=8 / deblock=1:0:0 / analyse=0x3:0x113 / me=hex / subme=7 / psy=1 / psy_rd=1.00:0.00 / mixed_ref=1 / me_range=16 / chroma_me=1 / trellis=1 / 8x8dct=1 / cqm=0 / deadzone=21,11 / fast_pskip=1 / chroma_qp_offset=-2 / threads=6 / lookahead_threads=1 / sliced_threads=0 / nr=0 / decimate=1 / interlaced=0 / bluray_compat=0 / constrained_intra=0 / bframes=8 / b_pyramid=2 / b_adapt=1 / b_bias=0 / direct=1 / weightb=1 / open_gop=0 / weightp=2 / keyint=250 / keyint_min=23 / scenecut=40 / intra_refresh=0 / rc_lookahead=40 / rc=abr / mbtree=1 / bitrate=2067 / ratetol=1.0 / qcomp=0.60 / qpmin=0 / qpmax=69 / qpstep=4 / ip_ratio=1.40 / aq=1:1.00
Default : Да
Forced : Нет

Аудио
Идентификатор : 2
Формат : AC-3
Формат/Информация : Audio Coding 3
Расширение режима : CM (complete main)
Параметр Endianness формата : Big
Режим смешивания : Header stripping
Идентификатор кодека : A_AC3
Продолжительность : 1 ч. 50 м.
Вид битрейта : Постоянный
Битрейт : 448 Кбит/сек
Каналы : 6 каналов
Расположение каналов : Front: L C R, Side: L R, LFE
Частота : 48,0 КГц
Битовая глубина : 16 бит
Метод сжатия : С потерями
Размер потока : 354 Мбайт (18%)
Язык : Russian
Default : Да
Forced : Нет


Кровавая работа скачать торрент


pb.wtf



Скачать Кровавая работа через торрент https://pic.kartinco.top/images/1/yzs4uyeudp.png Скачать фильм Кровавая работа через торрент бесплантно в хорошем качестве Описание: Терри МакКалеб — бывший агент ФБР, специализирующийся на серийных убийствах, перенес операцию по пересадке сердца и теперь ... 5 10 1
Info! Золотая раздача, скачанное не засчитывается.
Торрент: Зарегистрирован [2012-11-29 06:54] · скачан: 59 раз
Статус: √ проверено
Размер: 1.94 GB
Как cкачать? Как скачать Кровавая работа через торрент | UTorrent

% Раздел Тема Автор DL S | L
Фильмы [HD 720p, 1080p] (Хороший звук DUB, MVO) [ 12.07 GB ] Кровавая работа / Blood Work [2002 BDRip 1080p] DVO+MVO+2xAVO bober100 Скачать
1 | 0
Фильмы (Blu-ray, BD-Remux, HDDVD) [ 29.36 GB ] Кровавая работа / Blood Work [2002 BD Remux 1080p] DVO+MVO+2xAVO bober100 Скачать
1 | 0
T Фильмы 2011 [ 1.37 GB ] Кровавая работа / BloodWork [2011 DVDRip VO] Ворон Скачать
1 | 0

28-11-2019 20:33  

Отключить всю рекламу на сайте

    Дорогой пользователь! Огромная просьба, поблагодарите релизера, оцените раздачу и оставьте свои комментарий, если Вы скачали Кровавая работа через торрент бесплатно! Внесите свою лепту в развитие PiratBit!
    Комментировать посты могут только пользователи прошедшие не сложную регистрацию
    Показать сообщения:    

    Кровавая работа через торрент
    Скачать бесплатно Кровавая работа
    Кровавая работа скачать торрент
    Кровавая работа смотреть онлайн
    Cкачать фильм Кровавая работа бесплатно
    Кровавая работа скачать торрент в хорошем качестве
    Кровавая работа смотреть онлайн бесплатно в хорошем качестве


    Вы не можете начинать темы
    Вы не можете отвечать на сообщения
    Вы не можете редактировать свои сообщения
    Вы не можете удалять свои сообщения
    Вы не можете голосовать в опросах
    Вы не можете прикреплять файлы к сообщениям
    Вы можете скачивать файлы