Всегда рабочее зеркало без VPN и Proxy просто перед .vidak.icu напиши любое слово или цифру, Пример http://qehz.vidak.icu

MVO

MVO

1 сезон

1

1 сезон

iTunes

1 сезон

13

1 сезон

Deluxe

pack

Рекомендуем

Repack

30

ВАЖНО

RePack

MK11

RePack

jed

RePack

fifa19

RePack

RDR2

RePack

NEED FOR SPEED™ PAYBACK

Кинопоиск HD

6 сезон

 Острые козырьки 6 сезон

Все сериалы

все сериалы на PB.wtf

RePack

FAR CRY 5
  
Magnet ссылка

Детали / The Details (Джейкоб Аарон Эстес) [2011 г., комедия, драма, WEB-DLRip, VO] pb.wtf

Детали через торрент pb.wtf

Размер: 1.46 GB | Добавлен: 9 лет 8 мес. назад | Торрент скачан:52 раза
Смотреть онлайн Детали | Скачать    Ребята, помогите собрать деньги на оплату серверов!!!

30-11-2012 14:41 Детали Скачать торрент  


Детали / The Details
Год выпуска: 2011
Страна: США, LD Entertainment / Mark Gordon Productions / Modern VideoFilm
Жанр: комедия, драма
Продолжительность: 01:41:23
Перевод: Любительский одноголосый

Режиссер: Джейкоб Аарон Эстес

В ролях: Элизабет Бэнкс, Керри Вашингтон, Тоби Магуайр, Рэй Лиотта, Лора Линни, Деннис Хейсбёрт, Сэм Траммелл, Гэри Шварц, Кэти Ву, Кайл Парке

Описание: История семейной пары, совместная жизнь которых находится в весьма плачевном состоянии по причине измены. Отношения персонажей еще и обостряются после того, как на их заднем дворе происходит нашествие енотов. Разногласия по поводу того, как избавиться от вредителей рождают цепочку недоразумений, оканчивающихся убийством с применением лука и стрел.
Доп. информация:

Качество: WEB-DLRip
Формат: AVI
Видео кодек: XviD
Аудио кодек: AC3
Видео: 720x400 (1.80:1), 23.976 fps, XviD build 65 ~1666 kbps avg, 0.24 bit/pixel
Аудио#1: 48 kHz, AC3 Dolby Digital, 3/2 (L,C,R,l,r) + LFE ch, ~384 kbps


Video #0
ID : 0
Format : MPEG-4 Visual
Format profile : Advanced [email protected]
Format settings, BVOP : 1
Format settings, QPel : No
Format settings, GMC : No warppoints
Format settings, Matrix : Custom
Codec ID : XVID
Codec ID/Hint : XviD
Duration : 1h 41mn
Bit rate : 1 666 Kbps
Width : 720 pixels
Height : 400 pixels
Display aspect ratio : 16:9
Frame rate : 23.976 fps
Color space : YUV
Chroma subsampling : 4:2:0
Bit depth : 8 bits
Scan type : Progressive
Compression mode : Lossy
Bits/(Pixel*Frame) : 0.241
Stream size : 1.18 GiB (81%)
Writing library : XviD 65
Audio #1
ID : 1
Format : AC-3
Format/Info : Audio Coding 3
Mode extension : CM (complete main)
Format settings, Endianness : Big
Codec ID : 2000
Duration : 1h 41mn
Bit rate mode : Constant
Bit rate : 384 Kbps
Channel(s) : 6 channels
Channel positions : Front: L C R, Side: L R, LFE
Sampling rate : 48.0 KHz
Bit depth : 16 bits
Compression mode : Lossy
Stream size : 278 MiB (19%)
Alignment : Split accross interleaves
Interleave, duration : 42 ms (1.00 video frame)
Interleave, preload duration : 500 ms

pb.wtf



Скачать Детали через торрент https://pic1.kartinco.top/images/111/bwel1gnjcj.jpg Скачать, смотреть онлайн Детали бесплантно в хорошем качестве Описание: История семейной пары, совместная жизнь которых находится в весьма плачевном состоянии по причине измены. Отношения персонажей ... 6 10 1
Info! Золотая раздача, скачанное не засчитывается.
Торрент: Зарегистрирован [2012-11-30 14:41] · скачан: 52 раз
Статус: √ проверено
Размер: 1.46 GB
Как cкачать? Как скачать Детали через торрент | UTorrent

28-11-2019 20:33  

Отключить вcю реклaмy на сайте

    Дорогой пользователь! Огромная просьба, поблагодарите релизера, оцените раздачу и оставьте свои комментарий, если Вы скачали Детали через торрент бесплатно!
    Комментировать посты могут только пользователи прошедшие не сложную регистрацию
    Показать сообщения:    

    Детали через торрент
    Скачать бесплатно Детали
    Детали скачать торрент
    Детали смотреть онлайн
    Cкачать фильм Детали бесплатно
    Детали скачать торрент в хорошем качестве
    Детали смотреть онлайн бесплатно в хорошем качестве


    Вы не можете начинать темы
    Вы не можете отвечать на сообщения
    Вы не можете редактировать свои сообщения
    Вы не можете удалять свои сообщения
    Вы не можете голосовать в опросах
    Вы не можете прикреплять файлы к сообщениям
    Вы можете скачивать файлы