1 сезон

3 сезон

iTunes

1

Line

MVO

iTunes

13

1 сезон

RePack

30

Deluxe

pack

Лицензия

ВАЖНО

ИГРА 18+

pack

RePack

MK11

RePack

jed

RePack

fifa19

RePack

RDR2

RePack

NEED FOR SPEED™ PAYBACK

4 сезон

9 сезон

Бесстыжие 9 сезон

Все сериалы

все сериалы на PB.wtf

RePack

FAR CRY 5

Anonymous, доброе утро, мы катастрофически не успеваем собрать деньги на оплату серверов, помогите нам пожалуйста 5,10,15р., для нас важна любая помощь . В качестве благодарности мы отключим Вам всю рекламу на сайте (укажите свой ник в строку Ваше имя)!

×
  
Magnet ссылка

Грэбберсы / Grabbers (Джон Райт / Jon Wright) [2012, фантастика, триллер, комедия, DVD9] R5 pb.wtf

Грэбберсы через торрент pb.wtf

Размер: 6.21 GB | Добавлен: 8 лет 8 мес. назад | Торрент скачан:80 раз
Скачать  

01-12-2012 05:32 Грэбберсы Скачать торрент  


Грэбберсы / Grabbers
«Напиться, чтобы выжить!»
Страна: Великобритания, Ирландия
Студия: Forward Films, High Treason Productions, Irish Film Board, Nvizible, Samson Films
Жанр: фантастика, триллер, комедия
Год выпуска: 2012
Мировая премьера: 23 января 2012
Российская премьера: 13 сентября 2012
Дата выхода DVD: 5 декабря 2012
Продолжительность: 01:33:49
Перевод: Профессиональный (дублированный) [Лицензия]
Cубтитры: русские
Оригинальная аудиодорожка: английский
Режиссер: Джон Райт / Jon Wright
В ролях: Ричард Койл, Рут Брэдли, Рассел Тови, Лалор Родди, Дэвид Пирс, Нед Деннехи, Луис Демпси, Джонатан Райан, Стюарт Грэхэм, Брона Галлахер...
Описание: Когда на уединенном ирландском острове высаживаются кровожадные пришельцы, местные жители к собственной радости выясняют, что успешно бороться с монстрами все-таки можно: для этого необходимо всего лишь… хорошенько надраться и больше не просыхать.
Бонусы: нет

Релиз группы:
Качество: DVD9 R5
Формат: MPEG-PS
Видео кодек: MPEG2
Аудио кодек: AC3
Видео: PAL 16:9 (720x576(0.820)) MPEG Video, 25,000 кадр/сек, 8500 Кбит/сек
Аудио #1: Russian (Dolby AC3, 6 ch) 384 Кбит/сек, 48,0 КГц
Аудио #2: Russian (Dolby AC3, 2 ch) 192 Кбит/сек, 48,0 КГц
Аудио #3: English (Dolby AC3, 6 ch) 384 Кбит/сек, 48,0 КГц



Title: Grebbersy.2011.DVD9
Size: 6.21 Gb ( 6 513 766,00 KBytes ) - DVD-9
Enabled regions: 1, 2, 3, 4, 5, 6, 7, 8

VTS_01 :
Play Length: 00:00:01+01:30:03+00:00:01
Video: PAL 16:9 (720x576) VBR, Auto Letterboxed
Audio:
Russian (Dolby AC3, 6 ch)
Russian (Dolby AC3, 2 ch)
English (Dolby AC3, 6 ch)
Subtitles:
Russian

VTS_02 :
Play Length: 00:00:01+00:00:05+00:00:13
Video: PAL 16:9 (720x576) VBR, Auto Letterboxed
Audio:
Russian (Dolby AC3, 6 ch)

VTS_03 :
Play Length: 00:00:01+00:00:24+00:00:01
Video: PAL 16:9 (720x576) VBR, Auto Letterboxed
Audio:
Russian (Dolby AC3, 2 ch)

VTS_04 :
Play Length: 00:00:01+00:00:08+00:00:01
Video: PAL 16:9 (720x576) VBR, Auto Letterboxed
Audio:
Russian (Dolby AC3, 2 ch)

VTS_05 :
Play Length: 00:00:01+00:00:18+00:00:01
Video: PAL 4:3 (720x576) VBR
Audio:
Russian (Dolby AC3, 2 ch)

* Menus Information *

VIDEO_TS Menu
Video:
NTSC 4:3 (720x480) VBR
Auto Pan&Scan, Auto Letterboxed
Russian Language Unit :
Title Menu

VTS_01 Menu
Video:
PAL 16:9 (720x576) VBR
Auto Letterboxed
Audio:
Not specified (Dolby AC3, 6 ch)
Russian Language Unit :
Root Menu

VTS_02 Menu
Video:
NTSC 4:3 (720x480) VBR
Auto Pan&Scan, Auto Letterboxed
Language Unit :
Angle menu
Language Unit :
Root Menu
Language Unit :
Root Menu

VTS_03 Menu
Video:
NTSC 4:3 (720x480) VBR
Auto Pan&Scan, Auto Letterboxed
Language Unit :
Angle menu
Language Unit :
Root Menu
Chapter (PTT) Menu
Language Unit :
Root Menu
Chapter (PTT) Menu

VTS_04 Menu
Video:
NTSC 4:3 (720x480) VBR
Auto Pan&Scan, Auto Letterboxed
Language Unit :
Angle menu
Language Unit :
Root Menu
Chapter (PTT) Menu
Language Unit :


VTS_05 Menu
Video:
NTSC 4:3 (720x480) VBR
Auto Pan&Scan, Auto Letterboxed
Language Unit :
Angle menu
Language Unit :
Root Menu
Chapter (PTT) Menu
Language Unit :
Root Menu
Chapter (PTT) Menu
Общее
Полное имя : J:Новинки 2012Grebbersy.2011.DVD9VIDEO_TSVTS_01_4.VOB
Формат : MPEG-PS
Размер файла : 1024 Мбайт
Продолжительность : 14 м.
Общий поток : 9618 Кбит/сек

Видео
Идентификатор : 224 (0xE0)
Формат : MPEG Video
Версия формата : Version 2
Профиль формата : Main@Main
Параметр BVOP формата : Да
Параметр матрицы формата : Выборочная
Параметр GOP формата : M=3, N=15
Продолжительность : 14 м.
Битрейт : 8500 Кбит/сек
Ширина : 720 пикселей
Высота : 576 пикселей
Соотношение сторон : 16:9
Частота кадров : 25,000 кадров/сек
Стандарт вещания : PAL
Цветовое пространство : YUV
Субдискретизация насыщенности : 4:2:0
Битовая глубина : 8 бит
Тип развёртки : Чересстрочная
Порядок развёртки : Верхнее поле первое
Метод сжатия : С потерями
Бит/(Пиксели*Кадры) : 0.820
Размер потока : 901 Мбайт (88%)

Аудио #1
Идентификатор : 189 (0xBD)-128 (0x80)
Формат : AC-3
Формат/Информация : Audio Coding 3
Расширение режима : CM (complete main)
Параметр Endianness формата : Big
Режим смешивания : DVD-Video
Продолжительность : 14 м.
Вид битрейта : Постоянный
Битрейт : 384 Кбит/сек
Каналы : 6 каналов
Расположение каналов : Front: L C R, Side: L R, LFE
Частота : 48,0 КГц
Битовая глубина : 16 бит
Метод сжатия : С потерями
Задержка видео : -344 мс.
Размер потока : 40,9 Мбайт (4%)

Аудио #2
Идентификатор : 189 (0xBD)-129 (0x81)
Формат : AC-3
Формат/Информация : Audio Coding 3
Расширение режима : CM (complete main)
Параметр Endianness формата : Big
Режим смешивания : DVD-Video
Продолжительность : 14 м.
Вид битрейта : Постоянный
Битрейт : 192 Кбит/сек
Каналы : 2 канала
Расположение каналов : Front: L R
Частота : 48,0 КГц
Битовая глубина : 16 бит
Метод сжатия : С потерями
Задержка видео : -248 мс.
Размер потока : 20,4 Мбайт (2%)

Аудио #3
Идентификатор : 189 (0xBD)-130 (0x82)
Формат : AC-3
Формат/Информация : Audio Coding 3
Расширение режима : CM (complete main)
Параметр Endianness формата : Big
Режим смешивания : DVD-Video
Продолжительность : 14 м.
Вид битрейта : Постоянный
Битрейт : 384 Кбит/сек
Каналы : 6 каналов
Расположение каналов : Front: L C R, Side: L R, LFE
Частота : 48,0 КГц
Битовая глубина : 16 бит
Метод сжатия : С потерями
Задержка видео : -344 мс.
Размер потока : 40,9 Мбайт (4%)

Текст
Идентификатор : 189 (0xBD)-32 (0x20)
Формат : RLE
Формат/Информация : Run-length encoding
Режим смешивания : DVD-Video
Задержка видео : 120 мс.










pb.wtf



Скачать Грэбберсы через торрент http://i26.fastpic.ru/big/2012/1201/00/4f8b285b184351588299174851ecee00.jpg Скачать фильм Грэбберсы через торрент бесплантно в хорошем качестве Описание: Когда на уединенном ирландском острове высаживаются кровожадные пришельцы, местные жители к собственной радости выясняют, что ... 5 10 1
Info! Золотая раздача, скачанное не засчитывается.
Торрент: Зарегистрирован [2012-12-01 05:32] · скачан: 80 раз
Статус: √ проверено
Размер: 6.21 GB
Как cкачать? Как скачать Грэбберсы через торрент | UTorrent

28-11-2019 20:33  

Отключить всю рекламу на сайте

01-12-2012 07:38 Грэбберсы Скачать торрент  

БОЛЬШЕГО УГ Я НЕВИДЕЛ .Такое отвратительное кино .Что в нем хорошего кучка людей загоняет всех водку жрать а сами отводят пришельца осминога и разделываются с ним.Блин тупой низкобюджетный УГ. Такое ощющение что денег хватило на осминого а на остальное нетуpb.wtf



01-12-2012 11:17 Грэбберсы Скачать торрент  

Неужели англичане с ирландцами тупее америкосов? :lol:pb.wtf



    Дорогой пользователь! Огромная просьба, поблагодарите релизера, оцените раздачу и оставьте свои комментарий, если Вы скачали Грэбберсы через торрент бесплатно! Внесите свою лепту в развитие PiratBit!
    Комментировать посты могут только пользователи прошедшие не сложную регистрацию
    Показать сообщения:    

    Грэбберсы через торрент
    Скачать бесплатно Грэбберсы
    Грэбберсы скачать торрент
    Грэбберсы смотреть онлайн
    Cкачать фильм Грэбберсы бесплатно
    Грэбберсы скачать торрент в хорошем качестве
    Грэбберсы смотреть онлайн бесплатно в хорошем качестве


    Вы не можете начинать темы
    Вы не можете отвечать на сообщения
    Вы не можете редактировать свои сообщения
    Вы не можете удалять свои сообщения
    Вы не можете голосовать в опросах
    Вы не можете прикреплять файлы к сообщениям
    Вы можете скачивать файлы