Всегда рабочее зеркало просто перед .vidak.icu напиши любое слово или цифру, Пример http://37b.vidak.icu

>

7.4

iTunes

7.4

2 сезон

6.6

iTunes

1

7.4

2 сезон

7.2

iTunes

6.0

MVO

13

6.1

iTunes

8.3

Пиратка

30

ULTIMATE

pack

9.9

Лицензия

ВАЖНО

ИГРА 18+

pack

7.3

RePack

MK11

7.7

RePack

jed

7.8

RePack

fifa19

8.5

RePack

RDR2

RePack

NEED FOR SPEED™ PAYBACK

1 сезон

9 сезон

Бесстыжие 9 сезон

Все сериалы

все сериалы на PB.wtf

RePack

FAR CRY 5

Anonymous, добрый день, мы катастрофически не успеваем собрать деньги на оплату серверов, помогите нам пожалуйста 5,10,15р., для нас важна любая помощь . В качестве благодарности мы отключим Вам всю рекламу на сайте (укажите свой ник в строку Ваше имя)!

×
  
Magnet ссылка

Особо опасны / Savages (Оливер Стоун) [2012 г., триллер, драма, криминал, BDRip-AVC, AVO одноголосый] (UNRATED) pb.wtf

Особо опасны через торрент pb.wtf

Размер: 2.79 GB | Добавлен: 9 лет 1 мес. назад | Торрент скачан:1030 раз
Смотреть онлайн Особо опасны | Скачать    Ребята, помогите собрать деньги на оплату серверов!!!

01-12-2012 11:43 Особо опасны Скачать торрент  

Особо опасны / Savages

Год выпуска: 2012
Страна: США
Жанр: триллер, драма, криминал
Продолжительность: 02:21:10
Перевод: Авторский одноголосый [Дасевич]

Режиссер: Оливер Стоун
Продюссер: Мориц Борман, Эрик Копелофф, Тодд Арноу
Сценарий: Дон Уинслоу, Шейн Салерно, Оливер Стоун

Бюджет: $45 000 000
Премьера в мире: 25 июня 2012

Мировой рейтинг IMDB 6.60 (31 353)


В ролях: Тейлор Китч, Блейк Лайвли, Аарон Тейлор-Джонсон, Джон Траволта, Бенисио Дель Торо, Сальма Хайек, Эмиль Хирш, Демиан Бишир, Антонио Джарамилло, Хоакин Косио,

Описание: Молодые миллионеры Бен и Чон ведут дела на побережье Калифорнии. Бен — выдающийся ботаник и талантливый бизнесмен, Чон — мастер возвращения долгов и борьбы с конкурентами. В их работе много сложных моментов, ведь они выращивают лучшую в мире траву. Особо серьезные проблемы решает знакомый агент ФБР.Но с одной не сможет помочь даже он. Сверхприбыльным бизнесом заинтересовался мексиканский картель. Его возглавляет прекрасная Елена, и она нашла главную слабость друзей — и Бен, и Чон принадлежат одной девушке. Ради прелестной О. они готовы на все. Любовь делает нас особо опасными.


Доп. информация: UNRATED версия! Полный перевод.



Качество: BDRip
Формат: MKV
Видео кодек: AVC
Аудио кодек: AC3
Видео: 1280x528 (2,40:1), 23,976 fps, AVC, 2000 Kbps, 0.123 bits/pixel
Аудио#1: 48.0 kHz, AC3 Dolby Digital, 3/2 (L,C,R,l,r) + LFE ch, 448 kbps (AVO) [Дасевич]
Аудио#2: 48.0 kHz, AC3 Dolby Digital, 3/2 (L,C,R,l,r) + LFE ch, 384 kbps (ENG)
Субтитры: English,


скриншот   скриншот   скриншот   скриншот   скриншот   скриншот  
Общее
Уникальный идентификатор : 232835537787135049294476312784432398778 (0xAF2A7E51B3BBFDECA0CBBE31668A01BA)
Полное имя : D:DVDSavages.2012.UNRATED.Bluray.Srkfan.mkv
Формат : Matroska
Версия формата : Version 2
Размер файла : 2,79 Гбайт
Продолжительность : 2 ч. 21 м.
Общий поток : 2829 Кбит/сек
Название фильма : Savages.2012.UNRATED.Bluray.Srkfan
Дата кодирования : UTC 2012-12-01 10:25:53
Программа кодирования : mkvmerge v3.4.0 ('Rapunzel') сборка от May 15 2010 09:38:20
Библиотека кодирования : libebml v0.8.0 + libmatroska v0.9.0

Видео
Идентификатор : 1
Формат : AVC
Формат/Информация : Advanced Video Codec
Профиль формата : Main@L3.1
Параметр CABAC формата : Да
Параметр ReFrames формата : 4 кадра
Идентификатор кодека : V_MPEG4/ISO/AVC
Продолжительность : 2 ч. 21 м.
Битрейт : 2000 Кбит/сек
Ширина : 1280 пикселей
Высота : 528 пикселей
Соотношение сторон : 2,40:1
Режим частоты кадров : Постоянный
Частота кадров : 23,976 кадра/сек
Цветовое пространство : YUV
Субдискретизация насыщенности : 4:2:0
Битовая глубина : 8 бит
Тип развёртки : Прогрессивная
Бит/(Пиксели*Кадры) : 0.123
Размер потока : 1,91 Гбайт (69%)
Заголовок : Savages.2012.UNRATED.Bluray.Srkfan
Библиотека кодирования : x264 core 120
Настройки программы : cabac=1 / ref=1 / deblock=1:0:0 / analyse=0x1:0x111 / me=hex / subme=2 / psy=1 / psy_rd=1.00:0.00 / mixed_ref=0 / me_range=16 / chroma_me=1 / trellis=0 / 8x8dct=0 / cqm=0 / deadzone=21,11 / fast_pskip=1 / chroma_qp_offset=0 / threads=6 / sliced_threads=0 / nr=0 / decimate=1 / interlaced=0 / bluray_compat=0 / constrained_intra=0 / bframes=3 / b_pyramid=2 / b_adapt=1 / b_bias=0 / direct=1 / weightb=1 / open_gop=0 / weightp=1 / keyint=240 / keyint_min=24 / scenecut=40 / intra_refresh=0 / rc_lookahead=10 / rc=abr / mbtree=1 / bitrate=2000 / ratetol=1.0 / qcomp=0.60 / qpmin=3 / qpmax=69 / qpstep=4 / ip_ratio=1.40 / aq=1:1.00
Язык : English
Default : Да
Forced : Нет
Основные цвета : BT.709
Характеристики трансфера : BT.709
Коэффициенты матрицы : BT.709

Аудио #1
Идентификатор : 2
Формат : AC-3
Формат/Информация : Audio Coding 3
Расширение режима : CM (complete main)
Параметр Endianness формата : Big
Идентификатор кодека : A_AC3
Продолжительность : 2 ч. 21 м.
Вид битрейта : Постоянный
Битрейт : 448 Кбит/сек
Каналы : 6 каналов
Расположение каналов : Front: L C R, Side: L R, LFE
Частота : 48,0 КГц
Битовая глубина : 16 бит
Метод сжатия : С потерями
Размер потока : 452 Мбайт (16%)
Заголовок : AVO [Дасевич]
Язык : Russian
Default : Да
Forced : Нет

Аудио #2
Идентификатор : 3
Формат : AC-3
Формат/Информация : Audio Coding 3
Расширение режима : CM (complete main)
Параметр Endianness формата : Big
Идентификатор кодека : A_AC3
Продолжительность : 2 ч. 21 м.
Вид битрейта : Постоянный
Битрейт : 384 Кбит/сек
Каналы : 6 каналов
Расположение каналов : Front: L C R, Side: L R, LFE
Частота : 48,0 КГц
Битовая глубина : 16 бит
Метод сжатия : С потерями
Размер потока : 388 Мбайт (14%)
Язык : English
Default : Нет
Forced : Нет

Текст
Идентификатор : 4
Формат : PGS
Идентификатор кодека : S_HDMV/PGS
Идентификатор кодека/Информация : The same subtitle format used on BDs/HD-DVDs
Заголовок : English
Язык : English
Default : Нет
Forced : Нет


Особо опасны скачать торрент


pb.wtf



Скачать Особо опасны через торрент http://i47.fastpic.ru/big/2012/1201/77/725608e8b188437e3f7b3325cc685277.jpg Скачать, смотреть онлайн Особо опасны бесплантно в хорошем качестве Описание: Молодые миллионеры Бен и Чон ведут дела на побережье Калифорнии. Бен — выдающийся ботаник и талантливый бизнесмен, Чон — мастер ... 5 10 1
Info! Золотая раздача, скачанное не засчитывается.
Торрент: Зарегистрирован [2012-12-01 11:43] · скачан: 1 030 раз
Статус: √ проверено
Размер: 2.79 GB
Как cкачать? Как скачать Особо опасны через торрент | UTorrent

% Раздел Тема Автор DL S | L
Фильмы [HD 720p, 1080p] (Хороший звук DUB, MVO) [ 10.89 GB ] Особо опасны / Savages [2012 BDRip 720p лицензия] Ke$h@ Скачать
1 | 0
Фильмы [HD 720p, 1080p] (Хороший звук DUB, MVO) [ 6.81 GB ] Особо опасны / Savages [Unrated Cut] [2012 BDRip 720p DUB +Оригинал лицензия] Sудья Скачать
1 | 0
Фильмы 2012 [ 1.46 GB ] Особо опасны / Savages [UNRATED] [2012 HDRip DUB лицензия] Seedtank Скачать
1 | 0
Фильмы 2012 [ 2.18 GB ] Особо опасны / Savages [UNRATED] [2012 HDRip DUB лицензия] Seedtank Скачать
1 | 0
Фильмы (Blu-ray, BD-Remux, HDDVD) [ 42.56 GB ] Особо опасны / Savages [2012 Blu-ray 1080p] СЕЕ Unrated Cut diletant Скачать
1 | 0
Фильмы [HD 720p, 1080p] (Хороший звук DUB, MVO) [ 14.87 GB ] Особо опасны / Savages [UNRATED] [2012 BDRip 1080p DUB + Оригинал]+Sub engrus Trava-HD Скачать
1 | 0
Фильмы (DVD фильмы) [ 6.88 GB ] Особо опасны / Savages [2012 DVD9] R5 voovaz Скачать
1 | 0

28-11-2019 20:33  

Отключить всю рекламу на сайте

01-12-2012 13:09 Особо опасны Скачать торрент  

Интересно,скачан 0 раз ,а благодарностей 17? Типа спасибо,не надо?pb.wtf



01-12-2012 13:53 Особо опасны Скачать торрент  

infocosmos писал(а):

Интересно,скачан 0 раз ,а благодарностей 17? Типа спасибо,не надо?

всё гораздо проще-человек кликает"спасибо"и потом встаёт на закачку,для которой нужно некоторое время,вот и стояли нули на статистике скачавших,которые уже трансформировались в реальные цифры,кстати.pb.wtf



01-12-2012 15:53 Особо опасны Скачать торрент  

автор. нехорошо. источник не указал.pb.wtf



01-12-2012 17:24 Особо опасны Скачать торрент  

wowwawow писал(а):

автор. нехорошо. источник не указал.

Какой источник Вы хотите увидеть?pb.wtf



01-12-2012 18:23 Особо опасны Скачать торрент  

Спасибо))))))))))))))))))))))))))))pb.wtf



01-12-2012 23:48 Особо опасны Скачать торрент  

infocosmos писал(а):

Интересно,скачан 0 раз ,а благодарностей 17? Типа спасибо,не надо?

скачан 210 раз,а поблагодаривших гораздо..... ...да и infocosmos среди них не наблюдаеться... :ad: ...а своё выложить хоть что-то стесняется,наверное..
..а фильм нечего так..если мы об этом pb.wtf





Последний раз редактировалось: nika166 (2012-12-02 00:03), всего редактировалось 1 раз

01-12-2012 23:52 Особо опасны Скачать торрент  

wowwawow писал(а):

автор. нехорошо. источник не указал.

...да он и не автор...оказывается...а Оливер Стоун какой-то и компания pb.wtf



02-12-2012 12:03 Особо опасны Скачать торрент  

это не особо опасны.чё за бред.pb.wtf



07-12-2012 11:37 Особо опасны Скачать торрент  

Да стоящий такой фильм,даже второй раз захотелось посмотретьpb.wtf



    Дорогой пользователь! Огромная просьба, поблагодарите релизера, оцените раздачу и оставьте свои комментарий, если Вы скачали Особо опасны через торрент бесплатно!
    Комментировать посты могут только пользователи прошедшие не сложную регистрацию
    Показать сообщения:    

    Особо опасны через торрент
    Скачать бесплатно Особо опасны
    Особо опасны скачать торрент
    Особо опасны смотреть онлайн
    Cкачать фильм Особо опасны бесплатно
    Особо опасны скачать торрент в хорошем качестве
    Особо опасны смотреть онлайн бесплатно в хорошем качестве


    Вы не можете начинать темы
    Вы не можете отвечать на сообщения
    Вы не можете редактировать свои сообщения
    Вы не можете удалять свои сообщения
    Вы не можете голосовать в опросах
    Вы не можете прикреплять файлы к сообщениям
    Вы можете скачивать файлы