1 сезон

3 сезон

iTunes

1

iTunes

MVO

iTunes

13

1 сезон

RePack

30

Deluxe

pack

Лицензия

ВАЖНО

ИГРА 18+

pack

RePack

MK11

RePack

jed

RePack

fifa19

RePack

RDR2

RePack

NEED FOR SPEED™ PAYBACK

4 сезон

9 сезон

Бесстыжие 9 сезон

Все сериалы

все сериалы на PB.wtf

RePack

FAR CRY 5

Anonymous, доброй ночи, мы катастрофически не успеваем собрать деньги на оплату серверов, помогите нам пожалуйста 5,10,15р., для нас важна любая помощь . В качестве благодарности мы отключим Вам всю рекламу на сайте (укажите свой ник в строку Ваше имя)!

×
  
Magnet ссылка

Явление / The Apparition (Тодд Линкольн / Todd Lincoln) [2012, ужасы, триллер, DVD9] R5 pb.wtf

Явление через торрент pb.wtf

Размер: 4.48 GB | Добавлен: 8 лет 7 мес. назад | Торрент скачан:207 раз
Скачать  

01-12-2012 22:51 Явление Скачать торрент  


Явление / The Apparition
«Поверишь - умрешь»
Страна: США
Студия: Dark Castle Entertainment
Жанр: ужасы, триллер
Год выпуска: 2012
Мировая премьера: 23 августа 2012
Российская премьера: 30 августа 2012
Дата выхода DVD: 10 января 2013
Дата выхода Blu-Ray: 10 января 2013
Продолжительность: 01:22:24
Перевод: Профессиональный (дублированный) [Лицензия]
Cубтитры: русские, английские, арабские, чешские, греческие, иврит, мадьярские, польские, румынские, турецкие
Оригинальная аудиодорожка: английский
Режиссер: Тодд Линкольн / Todd Lincoln
В ролях: Эшли Грин, Себастьян Стэн, Том Фелтон, Джулианна Гуилл, Люк Паскуалино, Рик Гомез, Сюзанн Форд, Анна Кларк, Мина Серендиб, Марти Матулис
Описание: Когда в их доме начинают происходить странные пугающие события, молодые люди Келли и Бен выясняют, что их преследует потусторонняя сущность, случайно вызванная во время парапсихологического эксперимента в университете. Страшное нечто питается их страхами и истязает их, куда бы они ни бежали. Последняя надежда молодых людей — на эксперта по паранормальным явлениям, но может статься, что спасать их жизни от пугающей потусторонней силы уже слишком поздно — даже с его помощью…
Бонусы: Фильм о фильме

Релиз группы:
Качество: DVD9 R5
Формат: DVD-Video
Видео кодек: MPEG2
Аудио кодек: AC3
Видео: PAL 16:9 (720x576(0.520)) MPEG Video, 25,000 кадр/сек, 5392 Кбит/сек
Аудио #1: English (Dolby AC3, 6 ch) 448 Кбит/сек, 48,0 КГц
Аудио #2: Czech(Ceske) (Dolby AC3, 6 ch) 384 Кбит/сек, 48,0 КГц
Аудио #3: Magyar (Dolby AC3, 6 ch) 384 Кбит/сек, 48,0 КГц
Аудио #4: Polish (Dolby AC3, 6 ch) 384 Кбит/сек, 48,0 КГц
Аудио #5: Russian (Dolby AC3, 6 ch) 384 Кбит/сек, 48,0 КГц
Аудио #6: Turkish (Dolby AC3, 2 ch) 192 Кбит/сек, 48,0 КГц
Аудио #7: English (Dolby AC3, 2 ch) 192 Кбит/сек, 48,0 КГц



Title: Javlenie.2012.DVD9
Size: 4.48 Gb ( 4 697 426,00 KBytes ) - DVD-9
Enabled regions: 1, 2, 3, 4, 5, 6, 7, 8

VTS_01 :
Play Length: 01:19:02+00:00:00+00:04:09
Video: PAL 16:9 (720x576) VBR, Auto Letterboxed
Audio:
English (Dolby AC3, 6 ch)
Czech(Ceske) (Dolby AC3, 6 ch)
Magyar (Dolby AC3, 6 ch)
Polish (Dolby AC3, 6 ch)
Russian (Dolby AC3, 6 ch)
Turkish (Dolby AC3, 2 ch)
English (Dolby AC3, 2 ch)
Subtitles:
English
Arabic
Czech(Ceske)
Greek
Hebrew
Magyar
Polish
Romanian
Russian
Turkish
Czech(Ceske)
Magyar
Russian
Turkish

VTS_02 :
Play Length: 00:00:10
Video: PAL 16:9 (720x576) VBR, Auto Letterboxed
Audio:
Not specified (Dolby AC3, 6 ch)
Subtitles:
Not specified

VTS_03 :
Play Length: 00:01:49
Video: PAL 16:9 (720x576) VBR, Auto Letterboxed
Audio:
English (Dolby AC3, 2 ch)
Subtitles:
Not specified

* Menus Information *

VIDEO_TS Menu
Video:
PAL 16:9 (720x576) VBR
Auto Pan&Scan
Language Unit :
Title Menu

VTS_01 Menu
Video:
PAL 16:9 (720x576) VBR
Auto Pan&Scan
Audio:
Not specified (Dolby AC3, 2 ch)
English Language Unit :
Root Menu

VTS_02 Menu
Video:
NTSC 4:3 (720x480) VBR
Auto Pan&Scan, Auto Letterboxed
Language Unit :
Root Menu

VTS_03 Menu
Video:
PAL 16:9 (720x576) VBR
Auto Pan&Scan
Language Unit :
Root Menu
Общее
Полное имя : J:Новинки 2012Javlenie.2012.DVD9VIDEO_TSVTS_01_5.VOB
Формат : MPEG-PS
Размер файла : 1024 Мбайт
Продолжительность : 18 м.
Режим общего битрейта : Переменный
Общий поток : 7657 Кбит/сек

Видео
Идентификатор : 224 (0xE0)
Формат : MPEG Video
Версия формата : Version 2
Профиль формата : Main@Main
Параметр BVOP формата : Да
Параметр матрицы формата : Выборочная
Параметр GOP формата : Variable
Продолжительность : 18 м.
Вид битрейта : Переменный
Битрейт : 5392 Кбит/сек
Максимальный битрейт : 7000 Кбит/сек
Ширина : 720 пикселей
Высота : 576 пикселей
Соотношение сторон : 16:9
Частота кадров : 25,000 кадров/сек
Стандарт вещания : PAL
Цветовое пространство : YUV
Субдискретизация насыщенности : 4:2:0
Битовая глубина : 8 бит
Тип развёртки : Чересстрочная
Порядок развёртки : Верхнее поле первое
Метод сжатия : С потерями
Бит/(Пиксели*Кадры) : 0.520
Размер потока : 721 Мбайт (70%)

Аудио #1
Идентификатор : 189 (0xBD)-128 (0x80)
Формат : AC-3
Формат/Информация : Audio Coding 3
Расширение режима : CM (complete main)
Параметр Endianness формата : Big
Режим смешивания : DVD-Video
Продолжительность : 18 м.
Вид битрейта : Постоянный
Битрейт : 384 Кбит/сек
Каналы : 6 каналов
Расположение каналов : Front: L C R, Side: L R, LFE
Частота : 48,0 КГц
Битовая глубина : 16 бит
Метод сжатия : С потерями
Задержка видео : -8 мс.
Размер потока : 51,4 Мбайт (5%)

Аудио #2
Идентификатор : 189 (0xBD)-129 (0x81)
Формат : AC-3
Формат/Информация : Audio Coding 3
Расширение режима : CM (complete main)
Параметр Endianness формата : Big
Режим смешивания : DVD-Video
Продолжительность : 18 м.
Вид битрейта : Постоянный
Битрейт : 384 Кбит/сек
Каналы : 6 каналов
Расположение каналов : Front: L C R, Side: L R, LFE
Частота : 48,0 КГц
Битовая глубина : 16 бит
Метод сжатия : С потерями
Задержка видео : -8 мс.
Размер потока : 51,4 Мбайт (5%)

Аудио #3
Идентификатор : 189 (0xBD)-130 (0x82)
Формат : AC-3
Формат/Информация : Audio Coding 3
Расширение режима : CM (complete main)
Параметр Endianness формата : Big
Режим смешивания : DVD-Video
Продолжительность : 18 м.
Вид битрейта : Постоянный
Битрейт : 384 Кбит/сек
Каналы : 6 каналов
Расположение каналов : Front: L C R, Side: L R, LFE
Частота : 48,0 КГц
Битовая глубина : 16 бит
Метод сжатия : С потерями
Задержка видео : -8 мс.
Размер потока : 51,4 Мбайт (5%)

Аудио #4
Идентификатор : 189 (0xBD)-131 (0x83)
Формат : AC-3
Формат/Информация : Audio Coding 3
Расширение режима : CM (complete main)
Параметр Endianness формата : Big
Режим смешивания : DVD-Video
Продолжительность : 18 м.
Вид битрейта : Постоянный
Битрейт : 384 Кбит/сек
Каналы : 6 каналов
Расположение каналов : Front: L C R, Side: L R, LFE
Частота : 48,0 КГц
Битовая глубина : 16 бит
Метод сжатия : С потерями
Задержка видео : -8 мс.
Размер потока : 51,4 Мбайт (5%)

Аудио #5
Идентификатор : 189 (0xBD)-132 (0x84)
Формат : AC-3
Формат/Информация : Audio Coding 3
Расширение режима : CM (complete main)
Параметр Endianness формата : Big
Режим смешивания : DVD-Video
Продолжительность : 18 м.
Вид битрейта : Постоянный
Битрейт : 384 Кбит/сек
Каналы : 6 каналов
Расположение каналов : Front: L C R, Side: L R, LFE
Частота : 48,0 КГц
Битовая глубина : 16 бит
Метод сжатия : С потерями
Задержка видео : -8 мс.
Размер потока : 51,4 Мбайт (5%)

Аудио #6
Идентификатор : 189 (0xBD)-133 (0x85)
Формат : AC-3
Формат/Информация : Audio Coding 3
Профиль формата : Dolby Digital
Расширение режима : CM (complete main)
Параметр Endianness формата : Big
Режим смешивания : DVD-Video
Продолжительность : 18 м.
Вид битрейта : Постоянный
Битрейт : 192 Кбит/сек
Каналы : 2 канала
Расположение каналов : Front: L R
Частота : 48,0 КГц
Битовая глубина : 16 бит
Метод сжатия : С потерями
Задержка видео : -8 мс.
Размер потока : 25,7 Мбайт (3%)

Текст #1
Идентификатор : 189 (0xBD)-32 (0x20)
Формат : RLE
Формат/Информация : Run-length encoding
Режим смешивания : DVD-Video
Задержка видео : 1 с. 960 мс.

Текст #2
Идентификатор : 189 (0xBD)-33 (0x21)
Формат : RLE
Формат/Информация : Run-length encoding
Режим смешивания : DVD-Video
Задержка видео : 2 с. 120 мс.

Текст #3
Идентификатор : 189 (0xBD)-34 (0x22)
Формат : RLE
Формат/Информация : Run-length encoding
Режим смешивания : DVD-Video
Задержка видео : 1 с. 960 мс.

Текст #4
Идентификатор : 189 (0xBD)-35 (0x23)
Формат : RLE
Формат/Информация : Run-length encoding
Режим смешивания : DVD-Video
Задержка видео : 1 с. 960 мс.

Текст #5
Идентификатор : 189 (0xBD)-36 (0x24)
Формат : RLE
Формат/Информация : Run-length encoding
Режим смешивания : DVD-Video
Задержка видео : 1 с. 960 мс.

Текст #6
Идентификатор : 189 (0xBD)-37 (0x25)
Формат : RLE
Формат/Информация : Run-length encoding
Режим смешивания : DVD-Video
Задержка видео : 1 с. 960 мс.

Текст #7
Идентификатор : 189 (0xBD)-38 (0x26)
Формат : RLE
Формат/Информация : Run-length encoding
Режим смешивания : DVD-Video
Задержка видео : 1 с. 960 мс.

Текст #8
Идентификатор : 189 (0xBD)-39 (0x27)
Формат : RLE
Формат/Информация : Run-length encoding
Режим смешивания : DVD-Video
Задержка видео : 1 с. 960 мс.

Текст #9
Идентификатор : 189 (0xBD)-40 (0x28)
Формат : RLE
Формат/Информация : Run-length encoding
Режим смешивания : DVD-Video
Задержка видео : 1 с. 960 мс.

Текст #10
Идентификатор : 189 (0xBD)-41 (0x29)
Формат : RLE
Формат/Информация : Run-length encoding
Режим смешивания : DVD-Video
Задержка видео : 1 с. 960 мс.










pb.wtf



Скачать Явление через торрент http://i47.fastpic.ru/big/2012/1201/8b/7483ffd5e0ff53b7267b5a1ce8a5828b.jpg Скачать фильм Явление через торрент бесплантно в хорошем качестве Описание: Когда в их доме начинают происходить странные пугающие события, молодые люди Келли и Бен выясняют, что их преследует ... 6 10 1
Info! Золотая раздача, скачанное не засчитывается.
Торрент: Зарегистрирован [2012-12-01 22:51] · скачан: 207 раз
Статус: √ проверено
Размер: 4.48 GB
Как cкачать? Как скачать Явление через торрент | UTorrent

28-11-2019 20:33  

Отключить всю рекламу на сайте

02-12-2012 06:17 Явление Скачать торрент  

Не смотрите на рейтинг, он сбивает с толку, просмотрите картину, идея не плохая заложена в фильме.pb.wtf



    Дорогой пользователь! Огромная просьба, поблагодарите релизера, оцените раздачу и оставьте свои комментарий, если Вы скачали Явление через торрент бесплатно! Внесите свою лепту в развитие PiratBit!
    Комментировать посты могут только пользователи прошедшие не сложную регистрацию
    Показать сообщения:    

    Явление через торрент
    Скачать бесплатно Явление
    Явление скачать торрент
    Явление смотреть онлайн
    Cкачать фильм Явление бесплатно
    Явление скачать торрент в хорошем качестве
    Явление смотреть онлайн бесплатно в хорошем качестве


    Вы не можете начинать темы
    Вы не можете отвечать на сообщения
    Вы не можете редактировать свои сообщения
    Вы не можете удалять свои сообщения
    Вы не можете голосовать в опросах
    Вы не можете прикреплять файлы к сообщениям
    Вы можете скачивать файлы