2 сезон

iTunes

1 сезон

1

iTunes

iTunes

iTunes

1 сезон

RePack

30

ИГРА 18+

pack

ВАЖНО

!!Акция!!

Alien_RageХит недели

RePack

MK11
pack

Забери бонус

RePack

jed

!!Акция!!

Alien_Rage

RePack

fifa19

RePack

Assassins Creed: Odyssey

RePack

NEED FOR SPEED™ PAYBACK

4 сезон

9 сезон

Бесстыжие 9 сезон

Все сериалы

все сериалы на PB.wtf

RePack

FAR CRY 5
  

Буря / The Tempest (Джули Тэймор) [2010 г., фэнтези, драма, мелодрама, комедия, BDRip, MVO] pb.wtf

Буря через торрент pb.wtf

Размер: 8.06 GB | Добавлен: 7 лет 10 мес. назад | Торрент скачан:95 раз
Скачать  

03-12-2012 19:19 Буря Скачать торрент  

Буря / The Tempest
Год выпуска: 2010
Страна: США
Жанр: фэнтези, драма, мелодрама, комедия
Продолжительность: 01:51:32
Перевод: Профессиональный многоголосый
Субтитры: Русские, английские
Режиссер: Джули Тэймор
Продюссер: Роберт Чартофф, Линн Хенди, Джейсон К. Лау
Сценарий: Джули Тэймор, Уильям Шекспир
Бюджет: $20 000 000
Премьера в мире: 11 сентября 2010
Мировой рейтинг IMDB 5.30 (3 454)

В ролях: Хелен Миррен, Расселл Брэнд, Рив Карни, Том Конти, Крис Купер, Алан Камминг, Джимон Хонсу, Фелисити Джонс, Альфред Молина, Дэвид Стрэтэйрн
Описание: Проспера управляет волшебным островом и заботится о своей юной дочери Миранде. После кораблекрушения в ее владения попадают королевские особы и их окружение. Катастрофа не была случайностью. Когда-то эти люди изгнали Просперу с ее родной земли, и теперь она, используя свою магическую силу, направила корабль врагов на остров, чтобы свести с ними счеты. Проспера заставляет своих мучителей проходить через опасные, а порой — очень смешные испытания. Однако между Мирандой и принцем Фердинандом вспыхивает любовь. И это то волшебство, с которым даже Проспера не может справиться...
Качество: BDRip
Формат: MKV
Видео кодек: H.264x
Аудио кодек: AC3
Видео: AVC at 9712 Кбит/сек Aspect : 1920 x 816 (2.353) at 23.976 fps
Аудио#1: AC-3 at 448 Кбит/сек Infos : 6 каналов, 48,0 КГц Language : ru
Аудио#2: AC-3 at 192 Кбит/сек Infos : 2 канала, 48,0 КГц Language : en

Код:

Общее
Уникальный идентификатор                 : 213058390553909773293750479061552332808 (0xA0498DAD65894AA6AD24259A16C60008)
Полное имя                               : C:UsersСлавонDesktopНовая папкаBurya.2010.x264.BDRip.1080p.mkv
Формат                                   : Matroska
Версия формата                           : Version 1
Размер файла                             : 8,06 Гбайт
Продолжительность                        : 1 ч. 51 м.
Общий поток                              : 10,3 Мбит/сек
Название фильма                          : Буря / The Tempest (2010) BDRip 1080p - firebit.org
Дата кодирования                         : UTC 2012-03-01 08:22:48
Программа кодирования                    : mkvmerge v2.3.0 ('Freak U') built on Sep  8 2008 18:32:16
Библиотека кодирования                   : libebml v0.7.7 + libmatroska v0.8.1

Видео
Идентификатор                            : 1
Формат                                   : AVC
Формат/Информация                        : Advanced Video Codec
Профиль формата                          : High@L4.1
Параметр CABAC формата                   : Да
Параметр ReFrames формата                : 5 кадров
Идентификатор кодека                     : V_MPEG4/ISO/AVC
Продолжительность                        : 1 ч. 51 м.
Битрейт                                  : 9712 Кбит/сек
Ширина                                   : 1920 пикселей
Высота                                   : 816 пикселей
Соотношение сторон                       : 2,35:1
Режим частоты кадров                     : Постоянный
Частота кадров                           : 23,976 кадра/сек
Цветовое пространство                    : YUV
Субдискретизация насыщенности            : 4:2:0
Битовая глубина                          : 8 бит
Тип развёртки                            : Прогрессивная
Бит/(Пиксели*Кадры)                      : 0.259
Размер потока                            : 7,40 Гбайт (92%)
Заголовок                                : http://firebit.org
Библиотека кодирования                   : x264 core 115 r2008 4c552d8
Настройки программы                      : cabac=1 / ref=5 / deblock=1:0:0 / analyse=0x3:0x133 / me=umh / subme=9 / psy=1 / psy_rd=1.00:0.00 / mixed_ref=1 / me_range=16 / chroma_me=1 / trellis=2 / 8x8dct=1 / cqm=0 / deadzone=21,11 / fast_pskip=0 / chroma_qp_offset=-2 / threads=18 / sliced_threads=0 / nr=0 / decimate=1 / interlaced=0 / bluray_compat=0 / constrained_intra=0 / bframes=3 / b_pyramid=2 / b_adapt=2 / b_bias=0 / direct=3 / weightb=1 / open_gop=0 / weightp=2 / keyint=250 / keyint_min=23 / scenecut=40 / intra_refresh=0 / rc_lookahead=50 / rc=2pass / mbtree=1 / bitrate=9712 / ratetol=1.0 / qcomp=0.60 / qpmin=0 / qpmax=69 / qpstep=4 / cplxblur=20.0 / qblur=0.5 / ip_ratio=1.40 / aq=1:1.00
Язык                                     : English
Default                                  : Да
Forced                                   : Нет

Аудио #1
Идентификатор                            : 2
Формат                                   : AC-3
Формат/Информация                        : Audio Coding 3
Расширение режима                        : CM (complete main)
Параметр Endianness формата              : Big
Идентификатор кодека                     : A_AC3
Продолжительность                        : 1 ч. 51 м.
Вид битрейта                             : Постоянный
Битрейт                                  : 448 Кбит/сек
Каналы                                   : 6 каналов
Расположение каналов                     : Front: L C R, Side: L R, LFE
Частота                                  : 48,0 КГц
Битовая глубина                          : 16 бит
Метод сжатия                             : С потерями
Размер потока                            : 357 Мбайт (4%)
Заголовок                                : http://firebit.org
Язык                                     : Russian
Default                                  : Да
Forced                                   : Нет

Аудио #2
Идентификатор                            : 3
Формат                                   : AC-3
Формат/Информация                        : Audio Coding 3
Расширение режима                        : CM (complete main)
Параметр Endianness формата              : Big
Идентификатор кодека                     : A_AC3
Продолжительность                        : 1 ч. 51 м.
Вид битрейта                             : Постоянный
Битрейт                                  : 192 Кбит/сек
Каналы                                   : 2 канала
Расположение каналов                     : Front: L R
Частота                                  : 48,0 КГц
Битовая глубина                          : 16 бит
Метод сжатия                             : С потерями
Размер потока                            : 153 Мбайт (2%)
Заголовок                                : http://firebit.org
Язык                                     : English
Default                                  : Нет
Forced                                   : Нет

Текст #1
Идентификатор                            : 4
Формат                                   : UTF-8
Идентификатор кодека                     : S_TEXT/UTF8
Идентификатор кодека/Информация          : UTF-8 Plain Text
Заголовок                                : http://firebit.org
Язык                                     : English
Default                                  : Да
Forced                                   : Нет

Текст #2
Идентификатор                            : 5
Формат                                   : UTF-8
Идентификатор кодека                     : S_TEXT/UTF8
Идентификатор кодека/Информация          : UTF-8 Plain Text
Заголовок                                : http://firebit.org
Язык                                     : Russian
Default                                  : Нет
Forced                                   : Нет

Текст #3
Идентификатор                            : 6
Формат                                   : UTF-8
Идентификатор кодека                     : S_TEXT/UTF8
Идентификатор кодека/Информация          : UTF-8 Plain Text
Заголовок                                : http://firebit.org
Язык                                     : English
Default                                  : Нет
Forced                                   : Нет

Текст #4
Идентификатор                            : 7
Формат                                   : UTF-8
Идентификатор кодека                     : S_TEXT/UTF8
Идентификатор кодека/Информация          : UTF-8 Plain Text
Заголовок                                : http://firebit.org
Язык                                     : English
Default                                  : Нет
Forced                                   : Нет



Буря скачать торрент


pb.wtf



Скачать Буря через торрент http://pic.kartinco.top/images/1/zxy8sw3y7a.jpg Скачать фильм Буря через торрент бесплантно в хорошем качестве Описание: Проспера управляет волшебным островом и заботится о своей юной дочери Миранде. После кораблекрушения в ее владения попадают ... 5 10 1
Info! Золотая раздача, скачанное не засчитывается.
Торрент: Зарегистрирован [2012-12-03 19:19] · скачан: 95 раз
Статус: √ проверено
Размер: 8.06 GB
Как cкачать? Как скачать Буря через торрент | qTorrent

% Раздел Тема Автор DL S | L
Фильмы [HD 720p, 1080p] (Хороший звук DUB, MVO) [ 4.71 GB ] Буря / The Tempest [2010 BDRip ][НТВ ~Relizer~ Скачать
1 | 0
Фильмы 2010 [ 1.36 GB ] Буря / The Tempest [2010 HDRip лицензия] coc900 Скачать
1 | 0
Фильмы (DVD фильмы) [ 7.66 GB ] Буря / The Tempest [2010 DVD9] R5 voovaz Скачать
1 | 0
Фильмы 2010 [ 1.37 GB ] Буря / Tempest The [2010 DVDRip] shuller Скачать
1 | 0

28-11-2019 20:33  

Отключить всю рекламу на сайте

    Дорогой пользователь! Огромная просьба, поблагодарите релизера, оцените раздачу и оставьте свои комментарий, если Вы скачали Буря через торрент бесплатно! Внесите свою лепту в развитие PiratBit!
    Комментировать посты могут только пользователи прошедшие не сложную регистрацию
    Показать сообщения:    

    Буря через торрент
    Скачать бесплатно Буря
    Буря скачать торрент
    Буря смотреть онлайн
    Cкачать фильм Буря бесплатно
    Буря скачать торрент в хорошем качестве
    Буря смотреть онлайн бесплатно в хорошем качестве


    Вы не можете начинать темы
    Вы не можете отвечать на сообщения
    Вы не можете редактировать свои сообщения
    Вы не можете удалять свои сообщения
    Вы не можете голосовать в опросах
    Вы не можете прикреплять файлы к сообщениям
    Вы можете скачивать файлы