Всегда рабочее зеркало без VPN и Proxy просто перед .vidak.icu напиши любое слово или цифру, Пример http://guzr.vidak.icu

MVO

MVO

1 сезон

1

1 сезон

iTunes

1 сезон

13

1 сезон

Deluxe

pack

Рекомендуем

Repack

30

ВАЖНО

RePack

MK11

RePack

jed

RePack

fifa19

RePack

RDR2

RePack

NEED FOR SPEED™ PAYBACK

Кинопоиск HD

6 сезон

 Острые козырьки 6 сезон

Все сериалы

все сериалы на PB.wtf

RePack

FAR CRY 5
  
Magnet ссылка

Девушка с татуировкой дракона / The Girl with the Dragon Tattoo (Дэвид Финчер) [2011 г., Триллер, драма, детектив, криминал, BDRip] / Hi10P pb.wtf

Девушка с татуировкой дракона через торрент pb.wtf

Размер: 2.48 GB | Добавлен: 9 лет 8 мес. назад | Торрент скачан:859 раз
Смотреть онлайн Девушка с татуировкой дракона | Скачать    Ребята, помогите собрать деньги на оплату серверов!!!

03-12-2012 20:24 Девушка с татуировкой дракона Скачать торрент  

Девушка с татуировкой дракона / The Girl with the Dragon Tattoo Год выпуска: 2011
Страна: США
Жанр: Триллер, драма, детектив, криминал
Продолжительность: 02:38:07
Перевод: Дублированный + Оригинальная дорожка
Субтитры: Русские + Английские

Режиссер: Дэвид Финчер
Продюссер: Чен Чаффин, Скотт Рудин, Сорен Стэмозе
Сценарий: Стивен Зеллиан, Стиг Ларссон

Бюджет: $90 000 000

В ролях: Дэниэл Крэйг, Руни Мара, Кристофер Пламмер, Стеллан Скарсгард, Стивен Беркофф, Робин Райт, Йорик ван Вагенинген, Джоэли Ричардсон, Джеральдин Джеймс, Горан Вишнич, Валерий Соловьев, Рамиля Искандер, Артем Карапетян, Василий Бочкарев, Андрей Ярославцев

Описание: Сорок лет назад Харриет Вангер бесследно пропала на острове, принадлежащем могущественному клану Вангер. Ее тело так и не было найдено, но ее дядя убежден, что это убийство и что убийца является членом его собственной, тесно сплоченной и неблагополучной семьи. Он нанимает опального журналиста Микаэля Блумквиста и татуированную хакершу Лисбет Саландер для проведения расследования.

Качество: BDRip
Формат: MKV
Видео кодек: h.264
Аудио кодек: AC3
Видео: h.264, 1024х424 pix., 23.976 fps, 1479 Kbps, 0.142 Bit/Pix, High [email protected]
Аудио#1: AC3, 48.0 KHz, 384 Kbps, 6 channels, 16 bits
Аудио#2: AC3, 48.0 KHz, 384 Kbps, 6 channels, 16 bits
General
Unique ID : 175568742314282262907969426107441797066 (0x84154F4FD954AC02A12B9679E31AD7CA)
Complete name : E:BDRip-AVCThe Girl with the Dragon Tattoo (2012).mkv
Format : Matroska
Format version : Version 2
File size : 2.48 GiB
Duration : 2h 38mn
Overall bit rate mode : Variable
Overall bit rate : 2 249 Kbps
Encoded date : UTC 2012-12-03 16:13:58
Writing application : mkvmerge v5.8.0 ('No Sleep / Pillow') built on Sep 2 2012 15:37:04
Writing library : libebml v1.2.3 + libmatroska v1.3.0

Video
ID : 1
Format : AVC
Format/Info : Advanced Video Codec
Format profile : High [email protected]
Format settings, CABAC : Yes
Format settings, ReFrames : 15 frames
Codec ID : V_MPEG4/ISO/AVC
Duration : 2h 38mn
Bit rate mode : Variable
Bit rate : 1 479 Kbps
Maximum bit rate : 30.0 Mbps
Width : 1 024 pixels
Height : 424 pixels
Display aspect ratio : 2.40:1
Frame rate mode : Constant
Frame rate : 23.976 fps
Color space : YUV
Chroma subsampling : 4:2:0
Bit depth : 10 bits
Scan type : Progressive
Bits/(Pixel*Frame) : 0.142
Stream size : 1.59 GiB (64%)
Writing library : x264 core 129 r2230 1cffe9f
Encoding settings : cabac=1 / ref=15 / deblock=1:-3:-3 / analyse=0x3:0x133 / me=tesa / subme=9 / psy=1 / psy_rd=1.00:0.15 / mixed_ref=1 / me_range=32 / chroma_me=1 / trellis=1 / 8x8dct=1 / cqm=0 / deadzone=21,11 / fast_pskip=1 / chroma_qp_offset=-3 / threads=4 / lookahead_threads=1 / sliced_threads=0 / nr=0 / decimate=1 / interlaced=0 / bluray_compat=0 / constrained_intra=0 / bframes=12 / b_pyramid=2 / b_adapt=2 / b_bias=0 / direct=3 / weightb=1 / open_gop=0 / weightp=2 / keyint=240 / keyint_min=23 / scenecut=40 / intra_refresh=0 / rc_lookahead=50 / rc=2pass / mbtree=1 / bitrate=1479 / ratetol=2.0 / qcomp=0.60 / qpmin=0 / qpmax=51 / qpstep=4 / cplxblur=20.0 / qblur=0.5 / vbv_maxrate=30000 / vbv_bufsize=62500 / nal_hrd=vbr / ip_ratio=1.40 / aq=1:1.00
Language : English
Default : Yes
Forced : No
Color primaries : BT.709
Transfer characteristics : BT.709
Matrix coefficients : BT.709

Audio #1
ID : 2
Format : AC-3
Format/Info : Audio Coding 3
Mode extension : CM (complete main)
Format settings, Endianness : Big
Codec ID : A_AC3
Duration : 2h 38mn
Bit rate mode : Constant
Bit rate : 384 Kbps
Channel(s) : 6 channels
Channel positions : Front: L C R, Side: L R, LFE
Sampling rate : 48.0 KHz
Bit depth : 16 bits
Compression mode : Lossy
Stream size : 434 MiB (17%)
Language : Russian
Default : Yes
Forced : No

Audio #2
ID : 3
Format : AC-3
Format/Info : Audio Coding 3
Mode extension : CM (complete main)
Format settings, Endianness : Big
Codec ID : A_AC3
Duration : 2h 38mn
Bit rate mode : Constant
Bit rate : 384 Kbps
Channel(s) : 6 channels
Channel positions : Front: L C R, Side: L R, LFE
Sampling rate : 48.0 KHz
Bit depth : 16 bits
Compression mode : Lossy
Stream size : 434 MiB (17%)
Language : English
Default : No
Forced : No

Text #1
ID : 4
Format : UTF-8
Codec ID : S_TEXT/UTF8
Codec ID/Info : UTF-8 Plain Text
Language : Russian
Default : No
Forced : No

Text #2
ID : 5
Format : UTF-8
Codec ID : S_TEXT/UTF8
Codec ID/Info : UTF-8 Plain Text
Title : Forced
Language : Russian
Default : Yes
Forced : No

Text #3
ID : 6
Format : UTF-8
Codec ID : S_TEXT/UTF8
Codec ID/Info : UTF-8 Plain Text
Language : English
Default : No
Forced : No
скриншот   скриншот   скриншот   скриншот  
pb.wtf



Скачать Девушка с татуировкой дракона через торрент https://pic1.kartinco.top/images/2011/j1243b6wll.png Скачать, смотреть онлайн Девушка с татуировкой дракона бесплантно в хорошем качестве Описание: Сорок лет назад Харриет Вангер бесследно пропала на острове, принадлежащем могущественному клану Вангер. Ее тело так и не было ... 9.9 10 26
Info! Золотая раздача, скачанное не засчитывается.
Торрент: Зарегистрирован [2012-12-03 20:24] · скачан: 859 раз
Статус: √ проверено
Размер: 2.48 GB
Как cкачать? Как скачать Девушка с татуировкой дракона через торрент | UTorrent

28-11-2019 20:33  

Отключить вcю реклaмy на сайте

09-01-2013 15:23 Девушка с татуировкой дракона Скачать торрент  

Хороший фильм, мне понравилсяpb.wtf



    Дорогой пользователь! Огромная просьба, поблагодарите релизера, оцените раздачу и оставьте свои комментарий, если Вы скачали Девушка с татуировкой дракона через торрент бесплатно!
    Комментировать посты могут только пользователи прошедшие не сложную регистрацию
    Показать сообщения:    

    Девушка с татуировкой дракона через торрент
    Скачать бесплатно Девушка с татуировкой дракона
    Девушка с татуировкой дракона скачать торрент
    Девушка с татуировкой дракона смотреть онлайн
    Cкачать фильм Девушка с татуировкой дракона бесплатно
    Девушка с татуировкой дракона скачать торрент в хорошем качестве
    Девушка с татуировкой дракона смотреть онлайн бесплатно в хорошем качестве


    Вы не можете начинать темы
    Вы не можете отвечать на сообщения
    Вы не можете редактировать свои сообщения
    Вы не можете удалять свои сообщения
    Вы не можете голосовать в опросах
    Вы не можете прикреплять файлы к сообщениям
    Вы можете скачивать файлы