Ссылка на приватное зеркало нашего сайта всего за 1$. Внимание количество ограничено!!!

2 сезон

iTunes

1 сезон

1

2 сезон

2 сезон

iTunes

1 сезон

RePack

30

Ultimate

ВАЖНО

ИГРА 18+

pack

RePack

MK11
pack

Забери бонус

RePack

jed

!!Акция!!

Alien_Rage

RePack

fifa19

RePack

Assassins Creed: Odyssey

RePack

NEED FOR SPEED™ PAYBACK

4 сезон

9 сезон

Бесстыжие 9 сезон

Все сериалы

все сериалы на PB.wtf

RePack

FAR CRY 5
  

Санта Лапус 2: Санта лапушки / Santa Paws 2: The Santa Pups (Роберт Винс) [2012 г., семейный, Blu-ray EUR, DUB, лицензия] pb.wtf

Санта Лапус 2: Санта лапушки через торрент pb.wtf

Размер: 25.85 GB | Добавлен: 7 лет 11 мес. назад | Торрент скачан:30 раз
Скачать  

04-12-2012 02:55 Санта Лапус 2: Санта лапушки Скачать торрент  

Санта Лапус 2: Санта лапушки / Santa Paws 2: The Santa Pups

Год выпуска: 2012
Страна: Канада
Жанр: семейный
Продолжительность: 01:26:13
Перевод: Дубляж, Лицензия

Режиссер: Роберт Винс
Сценарий: Филип Фракасси, Анна МакРобертс, Роберт Винс

Мировой рейтинг IMDB


В ролях: Дэнни Вудберн, Джои Ботвелл, Дженнифер Элиз Кокс, Джош Фельдман, Брюс Клайд Дженкинс, Ричард Кайнд, Шерил Лэдд, Кейтлин Мехер, Марлоу Пейтон, Тед Руни

Описание: Когда госпожа Клаус едет в Пайнвилль, игривые щенки прячутся в ее санях. Они начинают исполнять радостные желания мальчиков и девочек Пайнвилля, но что-то идет ужасно неправильно — Рождественский дух начинает исчезать. Теперь вместе с госпожой Клаус они должны спасти Рождество во всем мире.

Доп. информация: Бонусы:
- Рождественское попурри
- Смешные дубли

Качество: Blu-ray
Формат: BDAV
Видео кодек: AVC
Аудио кодек: AC3, DTS-HD MA
Видео: MPEG-4 AVC, 26999 Кбит/с, 1920x1080, 23.976 кадр/сек.
Аудио#1: английский (DTS-HD MA, 6 ch, 3736 Кбит/c, 48.0 КГц, 24 бит)
Аудио#2: португальский (AC3, 6 ch, 640 Кбит/c, 48.0 КГц, 16 бит)
Аудио#3: русский (AC3, 6 ch, 640 Кбит/c, 48.0 КГц, 16 бит)
Аудио#4: английский (AC3, 6 ch, 640 Кбит/c, 48.0 КГц, 16 бит)
Субтитры: Английские, китайские, корейские, испанские, португальские, тайские, индонезийские, малайские, вьетнамские, русские

Общее
Идентификатор : 0 (0x0)
Полное имя : E:SANTA PAWS 2 SANTA PUPS_HDCLUBBDMVSTREAM\00045.m2ts
Формат : BDAV
Формат/Информация : Blu-ray Video
Размер файла : 21,7 Гбайт
Продолжительность : 5 м. 8 с.
Режим общего битрейта : Переменный
Общий поток : 605 Мбит/сек
Максимальный общий битрейт : 48,0 Мбит/сек

Видео
Идентификатор : 4113 (0x1011)
Идентификатор меню : 1 (0x1)
Формат : AVC
Формат/Информация : Advanced Video Codec
Профиль формата : High@L4.1
Параметр CABAC формата : Да
Параметр ReFrames формата : 4 кадра
Идентификатор кодека : 27
Продолжительность : 5 м. 8 с.
Вид битрейта : Переменный
Максимальный битрейт : 27,9 Мбит/сек
Ширина : 1920 пикселей
Высота : 1080 пикселей
Соотношение сторон : 16:9
Частота кадров : 23,976 кадра/сек
Цветовое пространство : YUV
Субдискретизация насыщенности : 4:2:0
Битовая глубина : 8 бит
Тип развёртки : Прогрессивная

Аудио #1
Идентификатор : 4352 (0x1100)
Идентификатор меню : 1 (0x1)
Формат : DTS
Формат/Информация : Digital Theater Systems
Профиль формата : MA / Core
Режим : 16
Параметр Endianness формата : Big
Режим смешивания : Stream extension
Идентификатор кодека : 134
Продолжительность : 5 м. 7 с.
Вид битрейта : Переменный
Битрейт : Неизвестно / 1509 Кбит/сек
Каналы : 6 каналов
Расположение каналов : Front: L C R, Side: L R, LFE
Частота : 48,0 КГц
Битовая глубина : 24 бит
Метод сжатия : Без потерь / Lossy

Аудио #2
Идентификатор : 4353 (0x1101)
Идентификатор меню : 1 (0x1)
Формат : AC-3
Формат/Информация : Audio Coding 3
Расширение режима : CM (complete main)
Параметр Endianness формата : Big
Идентификатор кодека : 129
Продолжительность : 5 м. 7 с.
Вид битрейта : Постоянный
Битрейт : 640 Кбит/сек
Каналы : 6 каналов
Расположение каналов : Front: L C R, Side: L R, LFE
Частота : 48,0 КГц
Битовая глубина : 16 бит
Метод сжатия : С потерями
Размер потока : 23,5 Мбайт (0%)

Аудио #3
Идентификатор : 4354 (0x1102)
Идентификатор меню : 1 (0x1)
Формат : AC-3
Формат/Информация : Audio Coding 3
Расширение режима : CM (complete main)
Параметр Endianness формата : Big
Идентификатор кодека : 129
Продолжительность : 5 м. 7 с.
Вид битрейта : Постоянный
Битрейт : 640 Кбит/сек
Каналы : 6 каналов
Расположение каналов : Front: L C R, Side: L R, LFE
Частота : 48,0 КГц
Битовая глубина : 16 бит
Метод сжатия : С потерями
Размер потока : 23,5 Мбайт (0%)

Аудио #4
Идентификатор : 4355 (0x1103)
Идентификатор меню : 1 (0x1)
Формат : AC-3
Формат/Информация : Audio Coding 3
Расширение режима : CM (complete main)
Параметр Endianness формата : Big
Идентификатор кодека : 129
Продолжительность : 5 м. 7 с.
Вид битрейта : Постоянный
Битрейт : 640 Кбит/сек
Каналы : 6 каналов
Расположение каналов : Front: L C R, Side: L R, LFE
Частота : 48,0 КГц
Битовая глубина : 16 бит
Метод сжатия : С потерями
Размер потока : 23,5 Мбайт (0%)

Аудио #5
Идентификатор : 4356 (0x1104)
Идентификатор меню : 1 (0x1)
Формат : AC-3
Формат/Информация : Audio Coding 3
Расширение режима : CM (complete main)
Параметр Endianness формата : Big
Идентификатор кодека : 129
Продолжительность : 5 м. 7 с.
Вид битрейта : Постоянный
Битрейт : 640 Кбит/сек
Каналы : 6 каналов
Расположение каналов : Front: L C R, Side: L R, LFE
Частота : 48,0 КГц
Битовая глубина : 16 бит
Метод сжатия : С потерями
Размер потока : 23,5 Мбайт (0%)

Текст #1
Идентификатор : 4608 (0x1200)
Идентификатор меню : 1 (0x1)
Формат : PGS
Идентификатор кодека : 144

Текст #2
Идентификатор : 4609 (0x1201)
Идентификатор меню : 1 (0x1)
Формат : PGS
Идентификатор кодека : 144

Текст #3
Идентификатор : 4610 (0x1202)
Идентификатор меню : 1 (0x1)
Формат : PGS
Идентификатор кодека : 144

Текст #4
Идентификатор : 4611 (0x1203)
Идентификатор меню : 1 (0x1)
Формат : PGS
Идентификатор кодека : 144

Текст #5
Идентификатор : 4612 (0x1204)
Идентификатор меню : 1 (0x1)
Формат : PGS
Идентификатор кодека : 144

Текст #6
Идентификатор : 4613 (0x1205)
Идентификатор меню : 1 (0x1)
Формат : PGS
Идентификатор кодека : 144

Текст #7
Идентификатор : 4614 (0x1206)
Идентификатор меню : 1 (0x1)
Формат : PGS
Идентификатор кодека : 144

Текст #8
Идентификатор : 4615 (0x1207)
Идентификатор меню : 1 (0x1)
Формат : PGS
Идентификатор кодека : 144

Текст #9
Идентификатор : 4616 (0x1208)
Идентификатор меню : 1 (0x1)
Формат : PGS
Идентификатор кодека : 144

Текст #10
Идентификатор : 4617 (0x1209)
Идентификатор меню : 1 (0x1)
Формат : PGS
Идентификатор кодека : 144

Текст #11
Идентификатор : 4618 (0x120A)
Идентификатор меню : 1 (0x1)
Формат : PGS
Идентификатор кодека : 144

Текст #12
Идентификатор : 4619 (0x120B)
Идентификатор меню : 1 (0x1)
Формат : PGS
Идентификатор кодека : 144


Санта Лапус 2: Санта лапушки скачать торрент


pb.wtf



Скачать Санта Лапус 2: Санта лапушки через торрент http://i49.fastpic.ru/big/2012/1204/05/1c687f8b273716201b759246a696cb05.jpg Скачать фильм Санта Лапус 2: Санта лапушки через торрент бесплантно в хорошем качестве Описание: Когда госпожа Клаус едет в Пайнвилль, игривые щенки прячутся в ее санях. Они начинают исполнять радостные желания мальчиков и ... 5 10 1
Info! Золотая раздача, скачанное не засчитывается.
Торрент: Зарегистрирован [2012-12-04 02:54] · скачан: 30 раз
Статус: √ проверено
Размер: 25.85 GB
Как cкачать? Как скачать Санта Лапус 2: Санта лапушки через торрент | qTorrent

% Раздел Тема Автор DL S | L
Фильмы 2012 [ 1.36 GB ] Санта Лапус 2: Санта Лапушки / Santa Paws 2: The Santa Pups [2012 HDRip DUB] slaventi-69 Скачать
1 | 0

28-11-2019 20:33  

Отключить всю рекламу на сайте

    Дорогой пользователь! Огромная просьба, поблагодарите релизера, оцените раздачу и оставьте свои комментарий, если Вы скачали Санта Лапус 2: Санта лапушки через торрент бесплатно! Внесите свою лепту в развитие PiratBit!
    Комментировать посты могут только пользователи прошедшие не сложную регистрацию
    Показать сообщения:    

    Санта Лапус 2: Санта лапушки через торрент
    Скачать бесплатно Санта Лапус 2: Санта лапушки
    Санта Лапус 2: Санта лапушки скачать торрент
    Санта Лапус 2: Санта лапушки смотреть онлайн
    Cкачать фильм Санта Лапус 2: Санта лапушки бесплатно
    Санта Лапус 2: Санта лапушки скачать торрент в хорошем качестве
    Санта Лапус 2: Санта лапушки смотреть онлайн бесплатно в хорошем качестве


    Вы не можете начинать темы
    Вы не можете отвечать на сообщения
    Вы не можете редактировать свои сообщения
    Вы не можете удалять свои сообщения
    Вы не можете голосовать в опросах
    Вы не можете прикреплять файлы к сообщениям
    Вы можете скачивать файлы