1 сезон

1 сезон

iTunes

1

КиноПоиск HD

Кинопоиск HD

iTunes

13

1 сезон

RePack

30

Ultimate

ВАЖНО

ИГРА 18+

pack

RePack

MK11
pack

Легкие деньги

RePack

jed

RePack

fifa19

RePack

RDR2

RePack

NEED FOR SPEED™ PAYBACK

4 сезон

9 сезон

Бесстыжие 9 сезон

Все сериалы

все сериалы на PB.wtf

RePack

FAR CRY 5
  
Magnet ссылка

Дебютанты / Los debutantes (Андрес Вайссблут) [2003 г., триллер, драма, криминал, DVDRip, Профессиональный двухголосый] pb.wtf

Дебютанты через торрент pb.wtf

Размер: 1.36 GB | Добавлен: 8 лет 4 мес. назад | Торрент скачан:23 раза
Скачать  

07-12-2012 08:30 Дебютанты Скачать торрент  

Дебютанты / Los debutantes

Год выпуска: 2003
Страна: Чили
Жанр: триллер, драма, криминал
Продолжительность: 01:54:33
Перевод: Профессиональный двухголосый

Режиссер: Андрес Вайссблут
Продюссер: Себастьян Фройнд
Сценарий: Кристиан Джименез, Хулио Рохас, Андрес Вайссблут

Премьера в мире: 13 июня 2003

IMDb: 6.50 (576)
Кинопоиск: 5.711 38

В ролях: Антонелла Риос, Нестор Кантиллана, Хуан Пабло Миранда, Алехандро Трехо, Эдуардо Баррил, Роберто Фариас, Виктор Монтеро, Анита Альварадо, Марио Поблитэ, Антония Браво, Артуро Руис Тагл, Энджел, Франциска Кастро, Алан Рамирез, Хосе Арая, Роза Валеро, Лин Ю Лин, Марсело Рохас, Карлос Моралес, Родриго Де Ла Фуэнте, Хуан Кокс, Яэль Намиас, Карен Плаза, Мария Хосе Эрнандез

Описание: Два брата приезжают из глубинки в Сантьяго, знакомятся с
обольстительной стриптизершей и владельцем ночного клуба и оказываются втянутыми в водоворот любовных страстей и криминальных разборок.

Качество: DVDRip
Формат: AVI
Видео кодек: XviD
Аудио кодек: AC3
Видео: 704x384 (1.83:1), 25 fps, XviD Final 1.0.3 (build 37) ~1245 kbps avg, 0.18 bit/pixel
Аудио#1: 48 kHz, AC3 Dolby Digital, 3/2 (L,C,R,l,r) + LFE ch, ~448 kbps
Релиз от: сторонний ресурс











Общее
Полное имя : E:TorrentDebuytanty.2003.XviD.DVDRip.сторонний ресурс.avi
Формат : AVI
Формат/Информация : Audio Video Interleave
Размер файла : 1,36 Гбайт
Продолжительность : 1 ч. 54 м.
Общий поток : 1704 Кбит/сек
Программа кодирования : VirtualDubMod 1.5.10.2 (build 2540/release)
Библиотека кодирования : VirtualDubMod build 2540/release

Видео
Идентификатор : 0
Формат : MPEG-4 Visual
Профиль формата : Advanced Simple@L5
Параметр BVOP формата : 2
Параметр QPel формата : Нет
Параметр GMC формата : Без точки перехода
Параметр матрицы формата : Default (H.263)
Режим смешивания : Сжатый битовый поток
Идентификатор кодека : XVID
Идентификатор кодека/Подсказка : XviD
Продолжительность : 1 ч. 54 м.
Битрейт : 1246 Кбит/сек
Ширина : 704 пикс.
Высота : 384 пикс.
Соотношение сторон : 16:9
Частота кадров : 25,000 кадр/сек
Цветовое пространство : YUV
Подвыборка цветности : 4:2:0
Битовая глубина : 8 бит
Тип развёртки : Прогрессивная
Метод сжатия : С потерями
Бит/(Пиксели*Кадры) : 0.184
Размер потока : 1021 Мбайт (73%)
Библиотека кодирования : XviD 1.0.3 (UTC 2004-12-20)

Аудио
Идентификатор : 1
Формат : AC-3
Формат/Информация : Audio Coding 3
Расширение режима : CM (complete main)
Идентификатор кодека : 2000
Продолжительность : 1 ч. 54 м.
Вид битрейта : Постоянный
Битрейт : 448 Кбит/сек
Каналы : 6 каналов
Расположение каналов : Front: L C R, Side: L R, LFE
Частота : 48,0 КГц
Битовая глубина : 16 бит
Метод сжатия : С потерями
Размер потока : 367 Мбайт (26%)
Выравнивание : Разделение по промежуткам
Продолжительность промежутка : 40 мс. (1,00 видеокадр)
Время предзагрузки промежутка : 500 ms

pb.wtf



Скачать Дебютанты через торрент https://pic.kartinco.top/images/1/2u3cw9jszg.jpg Скачать фильм Дебютанты через торрент бесплантно в хорошем качестве Описание: Два брата приезжают из глубинки в Сантьяго, знакомятся с обольстительной стриптизершей и владельцем ночного клуба и оказываются ... 10 10 1
Info! Золотая раздача, скачанное не засчитывается.
Торрент: Зарегистрирован [2012-12-07 08:30] · скачан: 23 раз
Статус: √ проверено
Размер: 1.36 GB
Как cкачать? Как скачать Дебютанты через торрент | UTorrent

28-11-2019 20:33  

Отключить всю рекламу на сайте

    Дорогой пользователь! Огромная просьба, поблагодарите релизера, оцените раздачу и оставьте свои комментарий, если Вы скачали Дебютанты через торрент бесплатно! Внесите свою лепту в развитие PiratBit!
    Комментировать посты могут только пользователи прошедшие не сложную регистрацию
    Показать сообщения:    

    Дебютанты через торрент
    Скачать бесплатно Дебютанты
    Дебютанты скачать торрент
    Дебютанты смотреть онлайн
    Cкачать фильм Дебютанты бесплатно
    Дебютанты скачать торрент в хорошем качестве
    Дебютанты смотреть онлайн бесплатно в хорошем качестве


    Вы не можете начинать темы
    Вы не можете отвечать на сообщения
    Вы не можете редактировать свои сообщения
    Вы не можете удалять свои сообщения
    Вы не можете голосовать в опросах
    Вы не можете прикреплять файлы к сообщениям
    Вы можете скачивать файлы