Ссылка на приватное зеркало нашего сайта всего за 1$. Внимание количество ограничено!!!

2 сезон

iTunes

1 сезон

1

2 сезон

2 сезон

iTunes

1 сезон

RePack

30

Ultimate

ВАЖНО

ИГРА 18+

pack

RePack

MK11
pack

Забери бонус

RePack

jed

!!Акция!!

Alien_Rage

RePack

fifa19

RePack

Assassins Creed: Odyssey

RePack

NEED FOR SPEED™ PAYBACK

4 сезон

9 сезон

Бесстыжие 9 сезон

Все сериалы

все сериалы на PB.wtf

RePack

FAR CRY 5
  

Анальные Топ-Модели Рокко / Rocco's Top Anal Models (Rocco Siffredi / Rocco Siffredi Produzione (Evil Angel).) [2012 г., Gonzo, Foreign, Blowjob, Deep Throat, Gagging, Anal, Gaping, Multiple Penetrations, Ass To Mouth, Facial, Squirt, Group Sex, T pb.wtf

Анальные Топ-Модели Рокко через торрент pb.wtf

Размер: 4.36 GB | Добавлен: 7 лет 11 мес. назад | Торрент скачан:887 раз
Скачать  

07-12-2012 18:04 Анальные Топ-Модели Рокко Скачать торрент  

Анальные Топ-Модели Рокко. / Rocco's Top Anal Models.



Год выпуска: 2012 г.
Страна: USA.
Жанр: Gonzo, Foreign, Blowjob, Deep Throat, Gagging, Anal, Gaping, Multiple Penetrations, Ass To Mouth, Facial, Squirt, Group Sex, Threesomes, Lesbian, Toys, Fetish, Outdoor/Public Sex, Teens/Young Women, Europeans, Russian girls, Big Cock, Hardcore, Straight.
Продолжительность: 02:50:13 (фильм) + 00:17:49 (BTS) + 00:31:41 (др. бонусы).

Режиссер: Rocco Siffredi.
Студия: Rocco Siffredi Produzione (Evil Angel).

В ролях: Actresses-
Abbie Cat [Facial A2M]
Abbie (as Abby) [Anal Facial Bald A2M]
Ivana Sugar [Anal Bald]
Logan [Anal Facial DP Bald A2M]
Milla Yul (as Milla) [Anal Bald]
Wild Cat [Anal Facial]

Описание: "There's nothing better than fucking nasty, pretty, real models in the ass. Come on! Who wouldn't want to fuck girls like these?" - Rocco Siffredi
Porn industry legend Rocco Siffredi knows what it takes for an ambitious young lady to reach the top of her profession. For "Rocco's Top Anal Models," the big-dicked superstar has assembled a gorgeous cast of the most promising sluts in the world of ass fucking - his picks for the anal queens of the future.
After an afternoon of winter motor sledding, petite blonde Ivana Sugar and sultry brunette Abbie Cat treat director Rocco to a snow-covered double blow job in the cold outdoors. The adorable babes follow him inside and frolic in a fetishy threesome ... rimming assholes, sitting on his nose and mashing his face with their pretty bare feet. Soon it's a butt-banging free-for-all flavored with some nasty ass-to-mouth cocksucking. Wearing a mysterious mask, vinyl-clad Wild Cat enjoys a lesbian rimming date with her beautiful brunette friend Milla. Italian pervert Omar Galanti joins in; he reams their hungry assholes until they gape widely and covers the blonde's face with hot semen. Foxy Logan plays solo with an anal dildo and then takes on two huge Euro-dicks in a rectal romp rife with hole-stretching double-penetration. Logan swallows two loads of gooey cum.
And finally, slender, refined, stunning Abby takes the back entrance to show biz, trampling and ass-smothering the director, then getting his enormous cock shoved down her throat and deep inside her tight derriere. "Rocco's Top Anal Models" will do whatever it takes to succeed. Pay he ed to Rocco's warning: "Please, try to don't do this at home!"
Rocco Siffredi's "Rocco's Top Anal Models" is a single-disc DVD with behind-the-scenes footage, cumshot recap, photo galleries, cast list, filmographies and trailers.

Качество: DVD5.
Формат: MPEG.
Видео кодек: MPEG2.
Аудио кодек: AC3.
Видео: 7500 Kbps, 29.970 fps, 720х480 (or 853х480 / 16:9), MPG2 = MPEG 2 (SVCD/DVD).
Аудио#1: 192 Kbps, 48000 Hz, 2 ch, 0x2000 = AC3 DVM [0x80].
Scene 1. Abbie Cat, Ivana Sugar, Rocco Siffredi
Scene 2. Milla Yul, Wild Cat, Omar Galanti
Scene 3. Logan, Ian Scott, Mike Angelo
Scene 4. Abbie, Rocco Siffredi
DVD Bonus - BTS. Logan, Unknown Female 260154, guy, Omar Galanti, Rocco Siffredi
Общее
Полное имя : Rocco's Top Anal Model (2012) DVD5VIDEO_TSVTS_01_1.VOB
Формат : MPEG-PS
Размер файла : 1024 Мбайт
Продолжительность : 43 м.
Режим общего битрейта : Переменный
Общий поток : 3292 Кбит/сек
Видео
Идентификатор : 224 (0xE0)
Формат : MPEG Video
Версия формата : Version 2
Профиль формата : Main@Main
Параметр BVOP формата : Да
Параметр матрицы формата : Выборочная
Параметр GOP формата : M=3, N=15
Продолжительность : 43 м.
Вид битрейта : Переменный
Битрейт : 3034 Кбит/сек
Максимальный битрейт : 7500 Кбит/сек
Ширина : 720 пикселей
Высота : 480 пикселей
Соотношение сторон : 16:9
Частота кадров : 29,970 кадров/сек
Стандарт вещания : NTSC
Цветовое пространство : YUV
Субдискретизация насыщенности : 4:2:0
Битовая глубина : 8 бит
Тип развёртки : Чересстрочная
Порядок развёртки : Верхнее поле первое
Метод сжатия : С потерями
Бит/(Пиксели*Кадры) : 0.293
Размер потока : 944 Мбайт (92%)
Основные цвета : BT.601 NTSC
Характеристики трансфера : BT.601
Коэффициенты матрицы : BT.601
Аудио
Идентификатор : 189 (0xBD)-128 (0x80)
Формат : AC-3
Формат/Информация : Audio Coding 3
Расширение режима : CM (complete main)
Параметр Endianness формата : Big
Режим смешивания : DVD-Video
Продолжительность : 43 м.
Вид битрейта : Постоянный
Битрейт : 192 Кбит/сек
Каналы : 2 канала
Расположение каналов : Front: L R
Частота : 48,0 КГц
Битовая глубина : 16 бит
Метод сжатия : С потерями
Размер потока : 59,7 Мбайт (6%)
Меню
pb.wtf



pack Скачать Анальные Топ-Модели Рокко через торрент http://i49.fastpic.ru/big/2012/1207/a8/e4c225d4976700afa790bbcbfe64eaa8.png Скачать фильм Анальные Топ-Модели Рокко через торрент бесплантно в хорошем качестве Описание: "There's nothing better than fucking nasty, pretty, real models in the ass. Come on! Who wouldn't want to fuck girls like these?" ... 9.9 10 10
Info! Золотая раздача, скачанное не засчитывается.
Торрент: Зарегистрирован [2012-12-07 18:04] · скачан: 887 раз
Статус: √ проверено
Размер: 4.36 GB
Как cкачать? Как скачать Анальные Топ-Модели Рокко через торрент | qTorrent

28-11-2019 20:33  

Отключить всю рекламу на сайте

08-12-2012 10:54 Анальные Топ-Модели Рокко Скачать торрент  

размерчик бы поменьшеpb.wtf



pack

08-12-2012 11:13 Анальные Топ-Модели Рокко Скачать торрент  

Да размерчик у него, конечно, большой, но её глубина и бОООльший размерчик примет)))

seders писал(а):

размерчик бы поменьше

Я понял о чём ты, но можно же и по-утрировать?!! = пошутить?
Давайте жить весело!pb.wtf



pack
    Дорогой пользователь! Огромная просьба, поблагодарите релизера, оцените раздачу и оставьте свои комментарий, если Вы скачали Анальные Топ-Модели Рокко через торрент бесплатно! Внесите свою лепту в развитие PiratBit!
    Комментировать посты могут только пользователи прошедшие не сложную регистрацию
    Показать сообщения:    

    Анальные Топ-Модели Рокко через торрент
    Скачать бесплатно Анальные Топ-Модели Рокко
    Анальные Топ-Модели Рокко скачать торрент
    Анальные Топ-Модели Рокко смотреть онлайн
    Cкачать фильм Анальные Топ-Модели Рокко бесплатно
    Анальные Топ-Модели Рокко скачать торрент в хорошем качестве
    Анальные Топ-Модели Рокко смотреть онлайн бесплатно в хорошем качестве


    Вы не можете начинать темы
    Вы не можете отвечать на сообщения
    Вы не можете редактировать свои сообщения
    Вы не можете удалять свои сообщения
    Вы не можете голосовать в опросах
    Вы не можете прикреплять файлы к сообщениям
    Вы можете скачивать файлы