2 сезон

iTunes

MVO

1

2 сезон

iTunes

iTunes

1 сезон

RePack

30

Новинка

ВАЖНО

ИГРА 18+

pack

RePack

MK11
pack

Легкие деньги

RePack

jed

RePack

fifa19

RePack

RDR2

RePack

NEED FOR SPEED™ PAYBACK

4 сезон

9 сезон

Бесстыжие 9 сезон

Все сериалы

все сериалы на PB.wtf

RePack

FAR CRY 5

Anonymous, добрый день, мы не успеваем собрать деньги на оплату серверов за декабрь и январь, помогите нам пожалуйста в это трудное время. В качестве благодарности мы отключим Вам всю рекламу на сайте (укажите свой ник в строку Ваше имя)!

×
  
Magnet ссылка

Как вырастить планету / How to Grow a Planet (1-сезон / 1-3 серии) (Nick Shoolingin-Jordan) [2012 г., документальный, BDRip 720p, MVO] pb.wtf

Как вырастить планету через торрент pb.wtf

Размер: 11.2 GB | Добавлен: 8 лет 1 мес. назад | Торрент скачан:25 раз
Скачать  

07-12-2012 18:58 Как вырастить планету Скачать торрент  

Как вырастить планету / How to Grow a Planet

Год выпуска: 2012
Страна: Великобритания
Жанр: документальный
Продолжительность: ~ 3 х 00:49:35
Перевод: Профессиональный многоголосый
Субтитры: English

Режиссер: Nick Shoolingin-Jordan
Продюссер: Деклан Хили, Mark Hedgecoe, Эндрю Томпсон

Премьера в мире: 7 февраля 2012



В ролях: Йен Стюарт, Катрина Хоуп, Дэниэл Мартин, Jim Spickler, Норберто Асенсио, Крис Остин, Jill Pruetz, Клаус Шмидт

Описание: В этом сериале профессор Ийан Стюарт рассказывает нам о новой, увлекательной версии истории формирования биогенеза, которую прошла наша планета. Показывая нам, сколь велики изменения, которые были вызваны, прежде всего обитателями растительного царства. Его рассказ повествует о древней эволюции представителей флоры и фауны Земли.

Качество: BDRip 720p
Формат: MKV
Видео кодек: AVC
Аудио кодек: AC3
Видео: AVC, 1280x720 (16:9), 25.000 fps, 8 431 Kbps (0.366 bit/pixel)
Аудио#1: AC-3, 48.0 KHz, 2 ch, 192 Kbps, CBR (Russian)
Аудио#2: DTS, 48.0 KHz, 2 ch, 1 510 Kbps, CBR (English)
Episode 1: Life from Light / Жизнь из света
Продолжительность: 00:49:35

Episode 2: The Power of Flowers / Сила цветов
Продолжительность: 00:48:56

Episode 3: The Challenger / Бросившие вызов
Продолжительность: 00:48:57

Имя файла: How.To.Grow.a.Planet.E1.Life.from.Light.2012.720p.BluRay.Rus.Eng.mkv
Размер файла: 3.58 GB
Длительность: 49mn 35s
Общий битрейт: 10.3 Mbps
Видео: AVC, 1280x720 (16:9), 25.000 fps, 8 431 Kbps (0.366 bit/pixel)
Аудио #1: AC-3, 48.0 KHz, 2 ch, 192 Kbps, CBR (Russian)
Аудио #2: DTS, 48.0 KHz, 2 ch, 1 510 Kbps, CBR (English)

Имя файла: How.To.Grow.a.Planet.E2.The.Power.of.Flowers.2012.720p.BluRay.Rus.Eng.mkv
Размер файла: 3.57 GB
Длительность: 48mn 57s
Общий битрейт: 10.4 Mbps
Видео: AVC, 1280x720 (16:9), 25.000 fps, 8 518 Kbps (0.370 bit/pixel)
Аудио #1: AC-3, 48.0 KHz, 2 ch, 192 Kbps, CBR (Russian)
Аудио #2: DTS, 48.0 KHz, 2 ch, 1 510 Kbps, CBR (English)
Субтитры: English

Имя файла: How.To.Grow.a.Planet.E3.The.Challenger.2012.720p.BluRay.Rus.Eng.mkv
Размер файла: 4.05 GB
Длительность: 48mn 58s
Общий битрейт: 11.9 Mbps
Видео: AVC, 1280x720 (16:9), 25.000 fps, 9 917 Kbps (0.430 bit/pixel)
Аудио #1: AC-3, 48.0 KHz, 2 ch, 192 Kbps, CBR (Russian)
Аудио #2: DTS, 48.0 KHz, 2 ch, 1 510 Kbps, CBR (English)
Субтитры: English


Формат : Matroska
Версия формата : Version 2
Размер файла : 3,58 Гбайт
Продолжительность : 49 м.
Общий поток : 10,3 Мбит/сек
Название фильма : How To Grow a Planet: EP1 - Life from Light (2012)
Дата кодирования : UTC 2012-12-04 20:25:16
Программа кодирования : mkvmerge v4.0.0 ('The Stars were mine') сборка от Jun 6 2010 16:18:42
Библиотека кодирования : libebml v1.0.0 + libmatroska v1.0.0

Видео
Идентификатор : 1
Формат : AVC
Формат/Информация : Advanced Video Codec
Профиль формата : High@L4.1
Параметр CABAC формата : Да
Параметр ReFrames формата : 7 кадров
Идентификатор кодека : V_MPEG4/ISO/AVC
Продолжительность : 49 м.
Битрейт : 8431 Кбит/сек
Ширина : 1280 пикселей
Высота : 720 пикселей
Соотношение сторон : 16:9
Режим частоты кадров : Постоянный
Частота кадров : 25,000 кадров/сек
Цветовое пространство : YUV
Субдискретизация насыщенности : 4:2:0
Битовая глубина : 8 бит
Тип развёртки : Прогрессивная
Бит/(Пиксели*Кадры) : 0.366
Размер потока : 2,92 Гбайт (82%)
Заголовок : How To Grow a Planet: EP1 - Life from Light (2012)
Библиотека кодирования : x264 core 115 r1995 c1e60b9
Настройки программы : cabac=1 / ref=7 / deblock=1:-3:-3 / analyse=0x3:0x113 / me=umh / subme=10 / psy=1 / psy_rd=1.00:0.00 / mixed_ref=1 / me_range=24 / chroma_me=1 / trellis=2 / 8x8dct=1 / cqm=0 / deadzone=21,11 / fast_pskip=0 / chroma_qp_offset=-2 / threads=6 / sliced_threads=0 / nr=0 / decimate=0 / interlaced=0 / bluray_compat=0 / constrained_intra=0 / bframes=7 / b_pyramid=2 / b_adapt=2 / b_bias=0 / direct=3 / weightb=1 / open_gop=0 / weightp=2 / keyint=250 / keyint_min=25 / scenecut=40 / intra_refresh=0 / rc_lookahead=50 / rc=crf / mbtree=1 / crf=18.0 / qcomp=0.75 / qpmin=0 / qpmax=69 / qpstep=4 / vbv_maxrate=50000 / vbv_bufsize=62500 / crf_max=0.0 / nal_hrd=none / ip_ratio=1.40 / aq=1:0.80
Язык : English
Default : Нет
Forced : Нет

Аудио #1
Идентификатор : 2
Формат : AC-3
Формат/Информация : Audio Coding 3
Расширение режима : CM (complete main)
Параметр Endianness формата : Big
Идентификатор кодека : A_AC3
Продолжительность : 49 м.
Вид битрейта : Постоянный
Битрейт : 192 Кбит/сек
Каналы : 2 канала
Расположение каналов : Front: L R
Частота : 48,0 КГц
Битовая глубина : 16 бит
Метод сжатия : С потерями
Размер потока : 68,1 Мбайт (2%)
Заголовок : Russian Dolby 2.0
Язык : Russian
Default : Да
Forced : Нет

Аудио #2
Идентификатор : 3
Формат : DTS
Формат/Информация : Digital Theater Systems
Идентификатор кодека : A_DTS
Продолжительность : 49 м.
Вид битрейта : Постоянный
Битрейт : 1510 Кбит/сек
Каналы : 2 канала
Расположение каналов : Front: L R
Частота : 48,0 КГц
Битовая глубина : 24 бит
Метод сжатия : С потерями
Размер потока : 535 Мбайт (15%)
Заголовок : English DTS 2.0
Язык : English
Default : Нет
Forced : Нет

Меню
00:00:00.000 : en:00:00:00.000
00:09:10.000 : en:00:09:10.000
00:18:57.000 : en:00:18:57.000
00:29:31.000 : en:00:29:31.000
00:39:23.000 : en:00:39:23.000
00:49:06.000 : en:00:49:06.000

скриншот   скриншот   скриншот   скриншот   скриншот   скриншот  pb.wtf



Скачать Как вырастить планету через торрент http://img825.imageshack.us/img825/2585/34032165.png Скачать фильм Как вырастить планету через торрент бесплантно в хорошем качестве Описание: В этом сериале профессор Ийан Стюарт рассказывает нам о новой, увлекательной версии истории формирования биогенеза, которую ... 5 10 1
Info! Золотая раздача, скачанное не засчитывается.
Торрент: Зарегистрирован [2012-12-07 18:58] · скачан: 25 раз
Статус: √ проверено
Размер: 11.2 GB
Как cкачать? Как скачать Как вырастить планету через торрент | UTorrent

28-11-2019 20:33  

Отключить всю рекламу на сайте

    Дорогой пользователь! Огромная просьба, поблагодарите релизера, оцените раздачу и оставьте свои комментарий, если Вы скачали Как вырастить планету через торрент бесплатно! Внесите свою лепту в развитие PiratBit!
    Комментировать посты могут только пользователи прошедшие не сложную регистрацию
    Показать сообщения:    

    Как вырастить планету через торрент
    Скачать бесплатно Как вырастить планету
    Как вырастить планету скачать торрент
    Как вырастить планету смотреть онлайн
    Cкачать фильм Как вырастить планету бесплатно
    Как вырастить планету скачать торрент в хорошем качестве
    Как вырастить планету смотреть онлайн бесплатно в хорошем качестве


    Вы не можете начинать темы
    Вы не можете отвечать на сообщения
    Вы не можете редактировать свои сообщения
    Вы не можете удалять свои сообщения
    Вы не можете голосовать в опросах
    Вы не можете прикреплять файлы к сообщениям
    Вы можете скачивать файлы