Доктор Стрэндж

Лицензия

Добыча

MVO

Дом дракона

1 сезон

Тор

Лицензия

Мэверик

Лицензия

Там, где раки поют

MVO

Властелин колец

1 сезон

Ultimate

pack

Рекомендуем

30

Repack

ВАЖНО

ВАЖНО

Ghostwire

RePack

jed

RePack

nioh2

RePack

RDR2

RePack

NEED FOR SPEED™ PAYBACK

RePack

скачать торрент

Кинопоиск HD

Острые козырьки 6 сезон

6 сезон

FAR CRY 6

RePack

скачать торрент

Лицензия

скачать торрент

MVO

1

1 сезон

скачать торрент

1 сезон

скачать торрент

Лицензия

  

Стоик: Выжить любой ценой / Stoic (Уве Болл) [2009 г., драма, криминал, HDTVRip (1080i), MVO,«CP-DIGITAL»]

Стоик: Выжить любой ценой через торрент pb.wtf

Размер: 7.46 GB | Добавлен: 9 лет 9 мес. назад | Торрент скачан:27 раз
Смотреть онлайн Стоик: Выжить любой ценой | Скачать   

09-12-2012 06:11 Стоик: Выжить любой ценой Скачать торрент  

Стоик: Выжить любой ценой / Stoic

Год выпуска: 2009
Страна: Германия
Жанр: драма, криминал
Продолжительность: 01:26:52
Перевод: Профессиональный многоголосый,«CP-DIGITAL»
Субтитры: Русские, английские
Режиссер: Уве Болл
Продюссер: Уве Болл, Дэн Кларк, Шон Уильямсон
Сценарий: Уве Болл
Бюджет: $2 000 000
Премьера в мире: 11 ноября 2008
Мировой рейтинг IMDB 4.00 (1 617)

В ролях: Эдвард Ферлонг, Шон Сайпос, Сэм Левинсон, Стеффен Меннекс, Риз Александр, Дэниэл Бойло, Джэми Свитч, Майкл Тиган
Описание: Одна камера, 4 сокамерника, игра в карты. Для одного из заключенных она заканчивается очень и очень печально.
Доп. информация: Фильм основан на реальных событиях, произошедших в тюрьме города Зигбург 11 ноября 2006 года.
Качество: HDTVRip (1080i)
Формат: MKV
Видео кодек: H.264x
Аудио кодек: AC3
Видео: AVC at 11,2 Мбит/сек Aspect : 1920 x 1080 (1.778) at 25.000 fps
Аудио#1: AC-3 at 448 Кбит/сек Infos : 6 каналов, 48,0 КГц Language : ru
Аудио#2: AC-3 at 448 Кбит/сек Infos : 6 каналов, 48,0 КГц Language : en





Код:

Общее
Уникальный идентификатор                 : 186854324621904029882942174510703744482 (0x8C92D57AA6B0DB529A20896F019495E2)
Полное имя                               : C:UsersСлавонDesktopНовая папкаStoic.2009.ylnian_HDLine.mkv
Формат                                   : Matroska
Версия формата                           : Version 2
Размер файла                             : 7,46 Гбайт
Продолжительность                        : 1 ч. 26 м.
Режим общего битрейта                    : Переменный
Общий поток                              : 12,3 Мбит/сек
Название фильма                          : Stoic. 2009. HDTV (1080i) - ylnian (HDLine) by kinozal.tv
Дата кодирования                         : UTC 2012-12-03 13:19:39
Программа кодирования                    : mkvmerge v5.8.0 ('No Sleep / Pillow') built on Sep  2 2012 15:37:04
Библиотека кодирования                   : libebml v1.2.3 + libmatroska v1.3.0

Видео
Идентификатор                            : 1
Формат                                   : AVC
Формат/Информация                        : Advanced Video Codec
Профиль формата                          : [email protected]
Параметр CABAC формата                   : Да
Параметр ReFrames формата                : 3 кадра
Параметр GOP формата                     : M=4, N=32
Идентификатор кодека                     : V_MPEG4/ISO/AVC
Продолжительность                        : 1 ч. 26 м.
Вид битрейта                             : Переменный
Битрейт                                  : 11,2 Мбит/сек
Максимальный битрейт                     : 40,0 Мбит/сек
Ширина                                   : 1920 пикселей
Высота                                   : 1080 пикселей
Соотношение сторон                       : 16:9
Режим частоты кадров                     : Постоянный
Частота кадров                           : 25,000 кадров/сек
Стандарт вещания                         : Component
Цветовое пространство                    : YUV
Субдискретизация насыщенности            : 4:2:0
Битовая глубина                          : 8 бит
Тип развёртки                            : Чересстрочная
Порядок развёртки                        : Верхнее поле первое
Бит/(Пиксели*Кадры)                      : 0.215
Размер потока                            : 6,77 Гбайт (91%)
Заголовок                                : Stoic. 2009. HDTV (1080i)
Язык                                     : English
Default                                  : Да
Forced                                   : Да
Основные цвета                           : BT.709
Характеристики трансфера                 : BT.709
Коэффициенты матрицы                     : BT.709

Аудио #1
Идентификатор                            : 2
Формат                                   : AC-3
Формат/Информация                        : Audio Coding 3
Расширение режима                        : CM (complete main)
Параметр Endianness формата              : Big
Идентификатор кодека                     : A_AC3
Продолжительность                        : 1 ч. 26 м.
Вид битрейта                             : Постоянный
Битрейт                                  : 448 Кбит/сек
Каналы                                   : 6 каналов
Расположение каналов                     : Front: L C R, Side: L R, LFE
Частота                                  : 48,0 КГц
Битовая глубина                          : 16 бит
Метод сжатия                             : С потерями
Задержка видео                           : -120 мс.
Размер потока                            : 278 Мбайт (4%)
Заголовок                                : MVO (AC3 5.1 448 kbps)
Язык                                     : Russian
Default                                  : Да
Forced                                   : Да

Аудио #2
Идентификатор                            : 3
Формат                                   : AC-3
Формат/Информация                        : Audio Coding 3
Расширение режима                        : CM (complete main)
Параметр Endianness формата              : Big
Идентификатор кодека                     : A_AC3
Продолжительность                        : 1 ч. 26 м.
Вид битрейта                             : Постоянный
Битрейт                                  : 448 Кбит/сек
Каналы                                   : 6 каналов
Расположение каналов                     : Front: L C R, Side: L R, LFE
Частота                                  : 48,0 КГц
Битовая глубина                          : 16 бит
Метод сжатия                             : С потерями
Задержка видео                           : -120 мс.
Размер потока                            : 278 Мбайт (4%)
Заголовок                                : AC3 5.1 448 kbps
Язык                                     : English
Default                                  : Нет
Forced                                   : Нет

Текст #1
Идентификатор                            : 4
Формат                                   : UTF-8
Идентификатор кодека                     : S_TEXT/UTF8
Идентификатор кодека/Информация          : UTF-8 Plain Text
Язык                                     : Russian
Default                                  : Да
Forced                                   : Нет

Текст #2
Идентификатор                            : 5
Формат                                   : UTF-8
Идентификатор кодека                     : S_TEXT/UTF8
Идентификатор кодека/Информация          : UTF-8 Plain Text
Язык                                     : English
Default                                  : Нет
Forced                                   : Нет



Стоик: Выжить любой ценой скачать торрент





Скачать Стоик: Выжить любой ценой через торрент https://pic1.kartinco.top/images/111/cn35xjzp5a.jpg Скачать, смотреть онлайн Стоик: Выжить любой ценой бесплантно в хорошем качестве Описание: Одна камера, 4 сокамерника, игра в карты. Для одного из заключенных она заканчивается очень и очень печально.Доп. информация: ... 5 10 1
Info! Золотая раздача, скачанное не засчитывается.
Торрент: Зарегистрирован [2012-12-09 06:11] · скачан: 27 раз
Статус: √ проверено
Размер: 7.46 GB
Как cкачать? Как скачать Стоик: Выжить любой ценой через торрент | UTorrent

28-11-2019 20:33  

Отключить вcю реклaмy на сайте

09-12-2012 07:49 Стоик: Выжить любой ценой Скачать торрент  

Давно не было "шедевров" господина Болла))))



    Дорогой пользователь! Огромная просьба, поблагодарите релизера, оцените раздачу и оставьте свои комментарий, если Вы скачали Стоик: Выжить любой ценой через торрент бесплатно!!
    Комментировать посты могут только пользователи прошедшие не сложную регистрацию
    Показать сообщения:    


    Стоик: Выжить любой ценой через торрент
    Скачать бесплатно Стоик: Выжить любой ценой
    Стоик: Выжить любой ценой скачать торрент
    Стоик: Выжить любой ценой смотреть онлайн
    Cкачать фильм Стоик: Выжить любой ценой бесплатно
    Стоик: Выжить любой ценой скачать торрент в хорошем качестве
    Стоик: Выжить любой ценой смотреть онлайн бесплатно в хорошем качестве
    Вы не можете начинать темы
    Вы не можете отвечать на сообщения
    Вы не можете редактировать свои сообщения
    Вы не можете удалять свои сообщения
    Вы не можете голосовать в опросах
    Вы не можете прикреплять файлы к сообщениям
    Вы можете скачивать файлы