Ссылка на приватное зеркало нашего сайта всего за 1$. Внимание количество ограничено!!!

2 сезон

iTunes

1 сезон

1

2 сезон

2 сезон

iTunes

1 сезон

RePack

30

Ultimate

ВАЖНО

ИГРА 18+

pack

RePack

MK11
pack

Забери бонус

RePack

jed

!!Акция!!

Alien_Rage

RePack

fifa19

RePack

Assassins Creed: Odyssey

RePack

NEED FOR SPEED™ PAYBACK

4 сезон

9 сезон

Бесстыжие 9 сезон

Все сериалы

все сериалы на PB.wtf

RePack

FAR CRY 5
  

Бандиты / Bandits (Барри Левинсон) [2001 г., драма, мелодрама, комедия, криминал, HDTVRip (1080i), MVO] pb.wtf

Бандиты через торрент pb.wtf

Качают: 1 [ 0 KB/s ]
Размер: 9.25 GB | Добавлен: 7 лет 11 мес. назад | Торрент скачан:31 раз
Скачать  

09-12-2012 17:03 Бандиты Скачать торрент  

Бандиты / Bandits

Год выпуска: 2001
Страна: США
Жанр: драма, мелодрама, комедия, криминал
Продолжительность: 01:57:34
Перевод: Профессиональный многоголосый
Субтитры: Русские (2 вида), английские
Режиссер: Барри Левинсон
Продюссер: Ашок Амритрадж, Джим Андрино, Майкл Бернбаум
Сценарий: Харли Пейтон
Бюджет: $75 000 000
Премьера в мире: 12 октября 2001

Мировой рейтинг IMDB 6.50 (41 710)

В ролях: Брюс Уиллис, Билли Боб Торнтон, Кейт Бланшетт, Трой Гэрити, Брайан Ф. О’Бирн, Стэйси Трэвис, Бобби Слэйтон, Дженьюэри Джонс, Азура Скай, Пегги Майли, Валерий Кухарешин
Описание: Встречайте Джо Блейка и Терри Коллинза — самых удачливых грабителей банков в истории Америки! Неотразимый мачо Джо и фантастический ипохондрик Терри, вечно жалующийся на воображаемые недуги, без единого выстрела, на одном великом своем обаянии и очаровательном нахальстве взяли больше банков, чем кто-либо.Казалось, удача никогда не оставит этих вежливых и остроумных налетчиков, ставших чуть ли не национальными героями. Но вот волею судеб в компанию героев попадает захотевшая вкусить приключений бедовая домохозяйка Кейт Уилер, в которую они оба немедленно влюбляются — и все в жизни парней идет кувырком!
Качество: HDTVRip (1080i)
Формат: MKV
Видео кодек: H.264x
Аудио кодек: AC3
Видео: AVC at 9597 Кбит/сек Aspect : 1920 x 1080 (1.778) at 25.000 fps
Аудио#1: AC-3 at 448 Кбит/сек Infos : 6 каналов, 48,0 КГц Language : профессиональный многоголосый №1 (Лицензия Видеосервис R5)
Аудио#2: AC-3 at 384 Кбит/сек Infos : 6 каналов, 48,0 КГц Language : профессиональный многоголосый №2
Аудио#3: AC-3 at 224 Кбит/сек Infos : 2 канала, 48,0 КГц Language : авторский одноголосый (Андрей Гаврилов)
Аудио#4: AC-3 at 384 Кбит/сек Infos : 6 каналов, 48,0 КГц Language : en

Код:

Общее
Уникальный идентификатор                 : 235460313051360612210076395382568547636 (0xB12401BB283820CAA1B3ECF67F027534)
Полное имя                               : C:UsersСлавонDesktopНовая папкаBandits.2001.ylnian_HDLine.mkv
Формат                                   : Matroska
Версия формата                           : Version 2
Размер файла                             : 9,25 Гбайт
Продолжительность                        : 1 ч. 57 м.
Режим общего битрейта                    : Переменный
Общий поток                              : 11,3 Мбит/сек
Название фильма                          : Bandits. 2001. HDTV (1080i) - ylnian (HDLine) by kinozal.tv
Дата кодирования                         : UTC 2012-11-25 11:47:08
Программа кодирования                    : mkvmerge v5.8.0 ('No Sleep / Pillow') built on Sep  2 2012 15:37:04
Библиотека кодирования                   : libebml v1.2.3 + libmatroska v1.3.0

Видео
Идентификатор                            : 1
Формат                                   : AVC
Формат/Информация                        : Advanced Video Codec
Профиль формата                          : Main@L4.0
Параметр CABAC формата                   : Да
Параметр ReFrames формата                : 3 кадра
Идентификатор кодека                     : V_MPEG4/ISO/AVC
Продолжительность                        : 1 ч. 57 м.
Вид битрейта                             : Переменный
Битрейт                                  : 9597 Кбит/сек
Максимальный битрейт                     : 40,0 Мбит/сек
Ширина                                   : 1920 пикселей
Высота                                   : 1080 пикселей
Соотношение сторон                       : 16:9
Режим частоты кадров                     : Постоянный
Частота кадров                           : 25,000 кадров/сек
Стандарт вещания                         : Component
Цветовое пространство                    : YUV
Субдискретизация насыщенности            : 4:2:0
Битовая глубина                          : 8 бит
Тип развёртки                            : Чересстрочная
Порядок развёртки                        : Верхнее поле первое
Бит/(Пиксели*Кадры)                      : 0.185
Размер потока                            : 7,88 Гбайт (85%)
Заголовок                                : Bandits. 2001. HDTV (1080i)
Язык                                     : English
Default                                  : Да
Forced                                   : Да
Основные цвета                           : BT.709
Характеристики трансфера                 : BT.709
Коэффициенты матрицы                     : BT.709

Аудио #1
Идентификатор                            : 2
Формат                                   : AC-3
Формат/Информация                        : Audio Coding 3
Расширение режима                        : CM (complete main)
Параметр Endianness формата              : Big
Идентификатор кодека                     : A_AC3
Продолжительность                        : 1 ч. 57 м.
Вид битрейта                             : Постоянный
Битрейт                                  : 448 Кбит/сек
Каналы                                   : 6 каналов
Расположение каналов                     : Front: L C R, Side: L R, LFE
Частота                                  : 48,0 КГц
Битовая глубина                          : 16 бит
Метод сжатия                             : С потерями
Задержка видео                           : -120 мс.
Размер потока                            : 377 Мбайт (4%)
Заголовок                                : MVO #1 (R5) (AC3 5.1 448 kbps)
Язык                                     : Russian
Default                                  : Да
Forced                                   : Да

Аудио #2
Идентификатор                            : 3
Формат                                   : AC-3
Формат/Информация                        : Audio Coding 3
Расширение режима                        : CM (complete main)
Параметр Endianness формата              : Big
Идентификатор кодека                     : A_AC3
Продолжительность                        : 1 ч. 57 м.
Вид битрейта                             : Постоянный
Битрейт                                  : 384 Кбит/сек
Каналы                                   : 6 каналов
Расположение каналов                     : Front: L C R, Side: L R, LFE
Частота                                  : 48,0 КГц
Битовая глубина                          : 16 бит
Метод сжатия                             : С потерями
Задержка видео                           : -120 мс.
Размер потока                            : 323 Мбайт (3%)
Заголовок                                : MVO #2 (AC3 5.1 384 kbps)
Язык                                     : Russian
Default                                  : Нет
Forced                                   : Нет

Аудио #3
Идентификатор                            : 4
Формат                                   : AC-3
Формат/Информация                        : Audio Coding 3
Расширение режима                        : CM (complete main)
Параметр Endianness формата              : Big
Идентификатор кодека                     : A_AC3
Продолжительность                        : 1 ч. 57 м.
Вид битрейта                             : Постоянный
Битрейт                                  : 224 Кбит/сек
Каналы                                   : 2 канала
Расположение каналов                     : Front: L R
Частота                                  : 48,0 КГц
Битовая глубина                          : 16 бит
Метод сжатия                             : С потерями
Задержка видео                           : -120 мс.
Размер потока                            : 188 Мбайт (2%)
Заголовок                                : AVO (Gavrilov) (AC3 2.0 224 kbps)
Язык                                     : Russian
Default                                  : Нет
Forced                                   : Нет

Аудио #4
Идентификатор                            : 5
Формат                                   : AC-3
Формат/Информация                        : Audio Coding 3
Расширение режима                        : CM (complete main)
Параметр Endianness формата              : Big
Идентификатор кодека                     : A_AC3
Продолжительность                        : 1 ч. 57 м.
Вид битрейта                             : Постоянный
Битрейт                                  : 384 Кбит/сек
Каналы                                   : 6 каналов
Расположение каналов                     : Front: L C R, Side: L R, LFE
Частота                                  : 48,0 КГц
Битовая глубина                          : 16 бит
Метод сжатия                             : С потерями
Задержка видео                           : -120 мс.
Размер потока                            : 323 Мбайт (3%)
Заголовок                                : AC3 5.1 384 kbps
Язык                                     : English
Default                                  : Нет
Forced                                   : Нет

Текст #1
Идентификатор                            : 6
Формат                                   : UTF-8
Идентификатор кодека                     : S_TEXT/UTF8
Идентификатор кодека/Информация          : UTF-8 Plain Text
Заголовок                                : #1
Язык                                     : Russian
Default                                  : Да
Forced                                   : Нет

Текст #2
Идентификатор                            : 7
Формат                                   : UTF-8
Идентификатор кодека                     : S_TEXT/UTF8
Идентификатор кодека/Информация          : UTF-8 Plain Text
Заголовок                                : #2
Язык                                     : Russian
Default                                  : Нет
Forced                                   : Нет

Текст #3
Идентификатор                            : 8
Формат                                   : UTF-8
Идентификатор кодека                     : S_TEXT/UTF8
Идентификатор кодека/Информация          : UTF-8 Plain Text
Язык                                     : English
Default                                  : Нет
Forced                                   : Нет



Бандиты скачать торрент


pb.wtf



Скачать Бандиты через торрент http://pic.kartinco.top/images/1/qili1lr4u8.jpg Скачать фильм Бандиты через торрент бесплантно в хорошем качестве Описание: Встречайте Джо Блейка и Терри Коллинза — самых удачливых грабителей банков в истории Америки! Неотразимый мачо Джо и ... 5 10 1
Info! Золотая раздача, скачанное не засчитывается.
Торрент: Зарегистрирован [2012-12-09 17:03] · скачан: 31 раз
Статус: √ проверено
Размер: 9.25 GB
Как cкачать? Как скачать Бандиты через торрент | qTorrent

% Раздел Тема Автор DL S | L
Фильмы 2001-2005 [ 2.18 GB ] Бандиты / Bandits [2001 Мело HDTVRip-AVC] MVO smaster Скачать
1 | 0

28-11-2019 20:33  

Отключить всю рекламу на сайте

09-12-2012 18:34 Бандиты Скачать торрент  

    Дорогой пользователь! Огромная просьба, поблагодарите релизера, оцените раздачу и оставьте свои комментарий, если Вы скачали Бандиты через торрент бесплатно! Внесите свою лепту в развитие PiratBit!
    Комментировать посты могут только пользователи прошедшие не сложную регистрацию
    Показать сообщения:    

    Бандиты через торрент
    Скачать бесплатно Бандиты
    Бандиты скачать торрент
    Бандиты смотреть онлайн
    Cкачать фильм Бандиты бесплатно
    Бандиты скачать торрент в хорошем качестве
    Бандиты смотреть онлайн бесплатно в хорошем качестве


    Вы не можете начинать темы
    Вы не можете отвечать на сообщения
    Вы не можете редактировать свои сообщения
    Вы не можете удалять свои сообщения
    Вы не можете голосовать в опросах
    Вы не можете прикреплять файлы к сообщениям
    Вы можете скачивать файлы