Ссылка на приватное зеркало нашего сайта всего за 1$. Внимание количество ограничено!!!

2 сезон

iTunes

1 сезон

1

iTunes

iTunes

iTunes

1 сезон

RePack

30

ИГРА 18+

pack

ВАЖНО

!!Акция!!

Alien_RageХит недели

RePack

MK11
pack

Забери бонус

RePack

jed

!!Акция!!

Alien_Rage

RePack

fifa19

RePack

Assassins Creed: Odyssey

RePack

NEED FOR SPEED™ PAYBACK

4 сезон

9 сезон

Бесстыжие 9 сезон

Все сериалы

все сериалы на PB.wtf

RePack

FAR CRY 5
  

Корабль-призрак / Ghost Ship (Стив Бек) [2002 г., ужасы, триллер, детектив, BDRip 720p, DUB] pb.wtf

Корабль-призрак через торрент pb.wtf

Размер: 4.62 GB | Добавлен: 7 лет 10 мес. назад | Торрент скачан:263 раза
Скачать  

09-12-2012 17:28 Корабль-призрак Скачать торрент  

Корабль-призрак / Ghost Ship
Год выпуска: 2002
Страна: США
Жанр: ужасы, триллер, детектив
Продолжительность: 01:30:43
Перевод: Дубляж
Субтитры: Русские, английские
Режиссер: Стив Бек
Продюссер: Гилберт Адлер, Брюс Берман, Стивен Джонс
Сценарий: Марк Хэнлон, Джон Пог
Бюджет: $20 000 000
Премьера в мире: 22 октября 2002
Мировой рейтинг IMDB 5.30 (47 811)

В ролях: Гэбриел Бирн, Джулианна Маргулис, Рон Элдард, Десмонд Харрингтон, Исайя Вашингтон, Алекс Димитриадес, Карл Урбан, Эмили Браунинг, Франческа Реттондини, Борис Бркич

Описание: В отдаленной области Берингова моря команда спасателей обнаруживает останки огромного пассажирского лайнера, который считался погибшим более 40 лет назад. Оказавшись на борту судна, спасатели сталкиваются с жутким прошлым корабля и вынуждены вступить в смертельную схватку...
Качество: BDRip 720p
Формат: MKV
Видео кодек: H.264x
Аудио кодек: AC3
Видео: AVC at 6258 Кбит/сек Aspect : 1280 x 720 (1.778) at 23.976 fps
Аудио#1: AC-3 at 384 Кбит/сек Infos : 6 каналов, 48,0 КГц Language : ru
Аудио#2: AC-3 at 640 Кбит/сек Infos : 6 каналов, 48,0 КГц Language : en

Код:

Общее
Уникальный идентификатор                 : 222234162436161956850862983520226884408 (0xA730BE28CE8980229BB67CCB82ABBB38)
Полное имя                               : C:UsersСлавонDesktopНовая папкаKorabl-Prizrak.2002.x264.BDRip-kinozal.tv-HD.mkv
Формат                                   : Matroska
Версия формата                           : Version 2
Размер файла                             : 4,62 Гбайт
Продолжительность                        : 1 ч. 30 м.
Общий поток                              : 7284 Кбит/сек
Название фильма                          : kinozal.tv-HD
Дата кодирования                         : UTC 2009-09-28 06:53:12
Программа кодирования                    : mkvmerge v2.9.5 ('Tu es le seul') built on Jun  7 2009 11:07:07
Библиотека кодирования                   : libebml v0.7.7 + libmatroska v0.8.1

Видео
Идентификатор                            : 1
Формат                                   : AVC
Формат/Информация                        : Advanced Video Codec
Профиль формата                          : High@L4.1
Параметр CABAC формата                   : Да
Параметр ReFrames формата                : 5 кадров
Идентификатор кодека                     : V_MPEG4/ISO/AVC
Продолжительность                        : 1 ч. 30 м.
Битрейт                                  : 6258 Кбит/сек
Ширина                                   : 1280 пикселей
Высота                                   : 720 пикселей
Соотношение сторон                       : 16:9
Режим частоты кадров                     : Постоянный
Частота кадров                           : 23,976 кадра/сек
Цветовое пространство                    : YUV
Субдискретизация насыщенности            : 4:2:0
Битовая глубина                          : 8 бит
Тип развёртки                            : Прогрессивная
Бит/(Пиксели*Кадры)                      : 0.283
Размер потока                            : 3,88 Гбайт (84%)
Библиотека кодирования                   : x264 core 76 r1271 496d79d
Настройки программы                      : cabac=1 / ref=5 / deblock=1:0:0 / analyse=0x3:0x133 / me=umh / subme=7 / psy=1 / psy_rd=1.0:0.0 / mixed_ref=1 / me_range=16 / chroma_me=1 / trellis=1 / 8x8dct=1 / cqm=0 / deadzone=21,11 / chroma_qp_offset=-2 / threads=6 / nr=0 / decimate=1 / mbaff=0 / bframes=3 / b_pyramid=0 / b_adapt=1 / b_bias=0 / direct=1 / wpredb=1 / keyint=250 / keyint_min=25 / scenecut=40 / rc_lookahead=40 / rc=2pass / mbtree=1 / bitrate=6258 / ratetol=1.0 / qcomp=0.60 / qpmin=10 / qpmax=51 / qpstep=4 / cplxblur=20.0 / qblur=0.5 / ip_ratio=1.40 / aq=1:1.00
Язык                                     : English
Default                                  : Да
Forced                                   : Нет

Аудио #1
Идентификатор                            : 2
Формат                                   : AC-3
Формат/Информация                        : Audio Coding 3
Расширение режима                        : CM (complete main)
Параметр Endianness формата              : Big
Идентификатор кодека                     : A_AC3
Продолжительность                        : 1 ч. 30 м.
Вид битрейта                             : Постоянный
Битрейт                                  : 384 Кбит/сек
Каналы                                   : 6 каналов
Расположение каналов                     : Front: L C R, Side: L R, LFE
Частота                                  : 48,0 КГц
Битовая глубина                          : 16 бит
Метод сжатия                             : С потерями
Задержка видео                           : 2 с. 0 мс.
Размер потока                            : 249 Мбайт (5%)
Язык                                     : Russian
Default                                  : Да
Forced                                   : Нет

Аудио #2
Идентификатор                            : 3
Формат                                   : AC-3
Формат/Информация                        : Audio Coding 3
Расширение режима                        : CM (complete main)
Параметр Endianness формата              : Big
Идентификатор кодека                     : A_AC3
Продолжительность                        : 1 ч. 30 м.
Вид битрейта                             : Постоянный
Битрейт                                  : 640 Кбит/сек
Каналы                                   : 6 каналов
Расположение каналов                     : Front: L C R, Side: L R, LFE
Частота                                  : 48,0 КГц
Битовая глубина                          : 16 бит
Метод сжатия                             : С потерями
Размер потока                            : 415 Мбайт (9%)
Язык                                     : English
Default                                  : Нет
Forced                                   : Нет

Текст #1
Идентификатор                            : 5
Формат                                   : UTF-8
Идентификатор кодека                     : S_TEXT/UTF8
Идентификатор кодека/Информация          : UTF-8 Plain Text
Язык                                     : English
Default                                  : Нет
Forced                                   : Нет

Текст #2
Идентификатор                            : 6
Формат                                   : UTF-8
Идентификатор кодека                     : S_TEXT/UTF8
Идентификатор кодека/Информация          : UTF-8 Plain Text
Язык                                     : Russian
Default                                  : Да
Forced                                   : Нет



Корабль-призрак скачать торрент


pb.wtf



Скачать Корабль-призрак через торрент http://pic.kartinco.top/images/1/g2ptnas278.jpg Скачать фильм Корабль-призрак через торрент бесплантно в хорошем качестве Описание: В отдаленной области Берингова моря команда спасателей обнаруживает останки огромного пассажирского лайнера, который считался ... 10 10 6
Info! Золотая раздача, скачанное не засчитывается.
Торрент: Зарегистрирован [2012-12-09 17:28] · скачан: 263 раз
Статус: √ проверено
Размер: 4.62 GB
Как cкачать? Как скачать Корабль-призрак через торрент | qTorrent

% Раздел Тема Автор DL S | L
T Фильмы (Blu-ray, BD-Remux, HDDVD) [ 24.05 GB ] Корабль-призрак / Ghost Ship [2002 BD Remux +авторский +++профессиональный ] Бумер Скачать
1 | 0
Фильмы [HD 720p, 1080p] (Хороший звук DUB, MVO) [ 12.74 GB ] Корабль-призрак / Ghost Ship [2002 BDRip 1080p +MVO+AVO] Ворон Скачать
1 | 0
Фильмы (HD 720p, 1080p) (48-60 fps) [ 3.16 GB ] Корабль-призрак / Ghost Ship [2002 BDRip 720p / 60 FPS ] от R.G. HD-Films slaventi-69 Скачать
1 | 0
National Geographic [ 1.18 GB ] National Geographic: Осушить океан: корабли-призраки Атлантики / Drain the Oceans. Ghost Ships of the Atlantic [2018 ДокументальныйHDTVRip ] Armstrong Скачать
1 | 0
Фильмы с авторской озвучкой [ 1.46 GB ] Корабль-призрак / Ghost Ship [2002 HDRip] [AVO] killermax2013 Скачать
1 | 0
T Релизы по Парсеру [Игры, Сериалы и Фильмы и другое...] [ 2.91 GB ] Корабль-призрак / Ghost Ship [2002 BDRip-AVC] Dub + AVO + MVO + Original + Subs sanekbest1 Скачать
1 | 0
Фильмы 2001-2005 [ 1.45 GB ] Корабль-призрак / Ghost Ship [2002 Австралия HDRip-AVC] DUB sokol_ok Скачать
4 | 0

28-11-2019 20:33  

Отключить всю рекламу на сайте

    Дорогой пользователь! Огромная просьба, поблагодарите релизера, оцените раздачу и оставьте свои комментарий, если Вы скачали Корабль-призрак через торрент бесплатно! Внесите свою лепту в развитие PiratBit!
    Комментировать посты могут только пользователи прошедшие не сложную регистрацию
    Показать сообщения:    

    Корабль-призрак через торрент
    Скачать бесплатно Корабль-призрак
    Корабль-призрак скачать торрент
    Корабль-призрак смотреть онлайн
    Cкачать фильм Корабль-призрак бесплатно
    Корабль-призрак скачать торрент в хорошем качестве
    Корабль-призрак смотреть онлайн бесплатно в хорошем качестве


    Вы не можете начинать темы
    Вы не можете отвечать на сообщения
    Вы не можете редактировать свои сообщения
    Вы не можете удалять свои сообщения
    Вы не можете голосовать в опросах
    Вы не можете прикреплять файлы к сообщениям
    Вы можете скачивать файлы