Ссылка на приватное зеркало нашего сайта всего за 1$. Внимание количество ограничено!!!

2 сезон

iTunes

1 сезон

1

2 сезон

2 сезон

iTunes

1 сезон

RePack

30

Новинка

ВАЖНО

ИГРА 18+

pack

RePack

MK11
pack

Забери бонус

RePack

jed

!!Акция!!

Alien_Rage

RePack

fifa19

RePack

Assassins Creed: Odyssey

RePack

NEED FOR SPEED™ PAYBACK

4 сезон

9 сезон

Бесстыжие 9 сезон

Все сериалы

все сериалы на PB.wtf

RePack

FAR CRY 5
  

Скотч (Евгений Белоусов) [2012 г., боевик, HDRip, Оригинал] pb.wtf

Скотч через торрент pb.wtf

Размер: 698 MB | Добавлен: 7 лет 11 мес. назад | Торрент скачан:859 раз
Скачать  

09-12-2012 17:33 Скотч Скачать торрент  


Скотч
Год выпуска: 2012
Страна: Россия
Жанр: боевик
Продолжительность: 00:38:08
Перевод: Оригинал
Режиссер: Евгений Белоусов
Сценарий: Евгений Белоусов
Мировой рейтинг IMDB

В ролях: Олег Захаров, Анастасия Брахнова, Артем Никулин, Анастасия Кутузова, Эмиль Сафаров, Евгений Корона, Сергей Цой, Алексей Жоркин
Описание: Бандиты решили убрать одного из своих партнеров по бизнесу, но не знали что он бывший наемник. Они отправили к нему горе киллера, который не справился с заданием, и сам оказался в заложниках. Бандиты начинают вытаскивать из передряги своего товарища, и все по одному оказываются в руках разъяренного наемника.
Качество: HDRip
Формат: AVI
Видео кодек: XviD
Аудио кодек: MP3
Видео: 720x304 (2.35:1), 25.000 fps, ~2422 kbps avg, 0.44 bit/pixel
Аудио: МР3, 128 Kbps (2 ch), 44.1 KHz




F:ФильмыСкотчСkоtj.2012.О.HDRip.avi
General
Complete name : F:ФильмыСкотчСkоtj.2012.О.HDRip.avi
Format : AVI
Format/Info : Audio Video Interleave
File size : 698 MiB
Duration : 38mn 8s
Overall bit rate : 2 560 Kbps
Writing library : VirtualDub build 32507/release
Video #0
ID : 0
Format : MPEG-4 Visual
Format profile : Advanced Simple@L5
Format settings, BVOP : 2
Format settings, QPel : No
Format settings, GMC : No warppoints
Format settings, Matrix : Default (H.263)
Codec ID : XVID
Codec ID/Hint : XviD
Duration : 38mn 8s
Bit rate : 2 422 Kbps
Width : 720 pixels
Height : 304 pixels
Display aspect ratio : 2.35:1
Frame rate : 25.000 fps
Color space : YUV
Chroma subsampling : 4:2:0
Bit depth : 8 bits
Scan type : Progressive
Compression mode : Lossy
Bits/(Pixel*Frame) : 0.443
Stream size : 661 MiB (95%)
Writing library : XviD 64
Audio #1
ID : 1
Format : MPEG Audio
Format version : Version 1
Format profile : Layer 3
Codec ID : 55
Codec ID/Hint : MP3
Duration : 38mn s
Bit rate mode : Constant
Bit rate : 128 Kbps
Channel(s) : 2 channels
Sampling rate : 44.1 KHz
Compression mode : Lossy
Stream size : 34.9 MiB (5%)
Alignment : Split accross interleaves
Interleave, duration : 40 ms (1.00 video frame)
Interleave, preload duration : 500 ms
Writing library : LAME3.99


Скотч скачать торрент


pb.wtf



Скачать Скотч через торрент http://pic.kartinco.top/images/1/fhfic36fc3.jpg Скачать фильм Скотч через торрент бесплантно в хорошем качестве Описание: Бандиты решили убрать одного из своих партнеров по бизнесу, но не знали что он бывший наемник. Они отправили к нему горе киллера, ... 7 10 6
Info! Золотая раздача, скачанное не засчитывается.
Торрент: Зарегистрирован [2012-12-09 17:33] · скачан: 859 раз
Статус: √ проверено
Размер: 698 MB
Как cкачать? Как скачать Скотч через торрент | qTorrent

28-11-2019 20:33  

Отключить всю рекламу на сайте

09-12-2012 18:26 Скотч Скачать торрент  

че короткий такой?
Продолжительность: 00:38:08pb.wtf



27-02-2013 20:03 Скотч Скачать торрент  

klepik писал(а):

че короткий такой?
Продолжительность: 00:38:08

Вы че позорите Россию с такими фильмами, удалите немедленно ...pb.wtf



02-03-2013 20:24 Скотч Скачать торрент  

Это прикол наверное а не фильм как он их бил наигранно и не грамотно!pb.wtf



03-03-2013 07:34 Скотч Скачать торрент  

Скачаем!!! Посмотрим!!!! Оценим!!!!! Респект релизеру!!!!!!!pb.wtf



10-03-2013 07:32 Скотч Скачать торрент  

Assassin2010 писал(а):

Это прикол наверное а не фильм как он их бил наигранно и не грамотно!

бюджет кончился rofl rofl roflpb.wtf



10-03-2013 18:26 Скотч Скачать торрент  

Шляпа полная pb.wtf



16-03-2013 09:23 Скотч Скачать торрент  

1samurai1 писал(а):

Assassin2010 писал(а):

Это прикол наверное а не фильм как он их бил наигранно и не грамотно!

бюджет кончился rofl rofl rofl

Точно))pb.wtf



17-03-2013 10:12 Скотч Скачать торрент  

ugin777 писал(а):

Шляпа полная [/quote
Вы забыли самые главные:
Бюджет:
Премьера в мире:
Мировой рейтинг

Я уверена, ваш фильм заслуживает минимум 3 премии ОСКАРpb.wtf



    Дорогой пользователь! Огромная просьба, поблагодарите релизера, оцените раздачу и оставьте свои комментарий, если Вы скачали Скотч через торрент бесплатно! Внесите свою лепту в развитие PiratBit!
    Комментировать посты могут только пользователи прошедшие не сложную регистрацию
    Показать сообщения:    

    Скотч через торрент
    Скачать бесплатно Скотч
    Скотч скачать торрент
    Скотч смотреть онлайн
    Cкачать фильм Скотч бесплатно
    Скотч скачать торрент в хорошем качестве
    Скотч смотреть онлайн бесплатно в хорошем качестве


    Вы не можете начинать темы
    Вы не можете отвечать на сообщения
    Вы не можете редактировать свои сообщения
    Вы не можете удалять свои сообщения
    Вы не можете голосовать в опросах
    Вы не можете прикреплять файлы к сообщениям
    Вы можете скачивать файлы