2 сезон

iTunes

MVO

1

2 сезон

iTunes

iTunes

1 сезон

RePack

30

Новинка

ВАЖНО

ИГРА 18+

pack

RePack

MK11
pack

Легкие деньги

RePack

jed

RePack

fifa19

RePack

RDR2

RePack

NEED FOR SPEED™ PAYBACK

4 сезон

9 сезон

Бесстыжие 9 сезон

Все сериалы

все сериалы на PB.wtf

RePack

FAR CRY 5

Anonymous, добрый день, мы не успеваем собрать деньги на оплату серверов за декабрь и январь, помогите нам пожалуйста в это трудное время. В качестве благодарности мы отключим Вам всю рекламу на сайте (укажите свой ник в строку Ваше имя)!

×
  
Magnet ссылка

Срочная доставка / Premium Rush (Дэвид Кепп) [2012, Боевик, триллер, BDRip-AVC] MVO + Original + Sub (eng., rus.) pb.wtf

Срочная доставка через торрент pb.wtf

Размер: 2.18 GB | Добавлен: 8 лет 1 мес. назад | Торрент скачан:428 раз
Скачать  

09-12-2012 22:28 Срочная доставка Скачать торрент  

Срочная доставка / Premium Rush

Год выпуска: 2012
Страна: США / Pariah
Жанр: Боевик, триллер
Продолжительность: 01:30:57
Перевод: Профессиональный (многоголосый закадровый) лицензия
Субтитры: Русские, английские
Режиссер: Дэвид Кепп

В ролях: Джозеф Гордон-Левитт, Дания Рамирес, Шон Кеннеди, Ким Перфетто, Энтони Чишолм, Эшли Остин Моррис, Уоли Паркс, Кевин Болджер, Аасиф Мандви, Лорен Эшли Картер, Чарльз Борланд, Майкл Шеннон, Аарон Твейт, Джейми Чунг, Крис Плэйс, Эми Хон, Дуглас С. Уильямс, Себастьян Лакос, Ник Дамичи, Келвин Вуи, Генри Кван, Кинэн Люн, Нэнси Энг, Брайан Коппельман, Хун Ли, Джимми П. Вонг, Кенни Вонг, Джейд Ву, Лиман Чен, Тони Ченг, Дарлен Вайолетт, Генри О, Тед Сод, Карси Уолкер мл., Мэттью Ройч, Майкл-Леон Вули, Виктор Чан, П.Дж. Соско, Джерри Уолш, Рут Чжан, Бойун Ванг, Ричард Хсю, Марио Д’Леон, Вэй Чинг Хо, Сабрина Лотт

Описание: Нью-йоркский посыльный в один прекрасный день забирает некий конверт в Колумбийском университете. Но оказывается, что содержимое послания очень интересует одного коррумпированного полицейского, который начинает преследование героя.
Бюджет: $35 000 000
Сборы в мире: $30 196 830

Качество: BDRip-AVC [Blu-Ray Remux]
Формат: MKV
Видео кодек: H.264
Аудио кодек: AC3
Видео: 1056x440 (2,40:1), 23,976 fps, 2537 Кbps, 0.228 bit/pixel
Аудио#1: 48 kHz, AC3 Dolby Digital, 3/2 (L,C,R,l,r) + LFE ch, ~448.00 kbps avg | RUS
Аудио#2: 48 kHz, AC3 Dolby Digital, 3/2 (L,C,R,l,r) + LFE ch, ~448.00 kbps avg | ENG
General
Unique ID : 178076499128689597508588472028653392287 (0x85F84944D1E829089B2480D69AB3919F)
Complete name : Srochaja.Dostavka.2012.P.BDRip.x264.potroks.mkv
Format : Matroska
Format version : Version 2
File size : 2.18 GiB
Duration : 1h 30mn
Overall bit rate : 3 435 Kbps
Movie name : -=POTROKS=-
Encoded date : UTC 2012-11-30 06:08:31
Writing application : mkvmerge v5.7.0 ('The Whirlwind') built on Jul 8 2012 20:08:51
Writing library : libebml v1.2.3 + libmatroska v1.3.0

Video
ID : 1
Format : AVC
Format/Info : Advanced Video Codec
Format profile : High@L4.1
Format settings, CABAC : Yes
Format settings, ReFrames : 10 frames
Codec ID : V_MPEG4/ISO/AVC
Duration : 1h 30mn
Bit rate : 2 537 Kbps
Width : 1 056 pixels
Height : 440 pixels
Display aspect ratio : 2.40:1
Frame rate mode : Constant
Frame rate : 23.976 fps
Color space : YUV
Chroma subsampling : 4:2:0
Bit depth : 8 bits
Scan type : Progressive
Bits/(Pixel*Frame) : 0.228
Stream size : 1.57 GiB (72%)
Title : Срочная доставка
Writing library : x264 core 128 r2216M 198a7ea
Encoding settings : cabac=1 / ref=11 / deblock=1:-2:-2 / analyse=0x3:0x133 / me=umh / subme=11 / psy=1 / psy_rd=1.05:0.00 / mixed_ref=1 / me_range=32 / chroma_me=1 / trellis=2 / 8x8dct=1 / cqm=0 / deadzone=21,11 / fast_pskip=0 / chroma_qp_offset=-2 / threads=4 / lookahead_threads=1 / sliced_threads=0 / nr=0 / decimate=1 / interlaced=0 / bluray_compat=0 / constrained_intra=0 / bframes=12 / b_pyramid=1 / b_adapt=2 / b_bias=0 / direct=3 / weightb=1 / open_gop=0 / weightp=2 / keyint=240 / keyint_min=23 / scenecut=40 / intra_refresh=0 / rc_lookahead=240 / rc=2pass / mbtree=1 / bitrate=2537 / ratetol=1.0 / qcomp=0.70 / qpmin=0 / qpmax=60 / qpstep=3 / cplxblur=20.0 / qblur=0.5 / vbv_maxrate=20000 / vbv_bufsize=25000 / nal_hrd=none / ip_ratio=1.35 / aq=1:0.80
Language : English
Default : Yes
Forced : No

Audio #1
ID : 2
Format : AC-3
Format/Info : Audio Coding 3
Mode extension : CM (complete main)
Format settings, Endianness : Big
Codec ID : A_AC3
Duration : 1h 30mn
Bit rate mode : Constant
Bit rate : 448 Kbps
Channel(s) : 6 channels
Channel positions : Front: L C R, Side: L R, LFE
Sampling rate : 48.0 KHz
Bit depth : 16 bits
Compression mode : Lossy
Delay relative to video : 59ms
Stream size : 291 MiB (13%)
Title : Dub | DD 5.1 @ 448 kbps
Language : Russian
Default : Yes
Forced : No

Audio #2
ID : 3
Format : AC-3
Format/Info : Audio Coding 3
Mode extension : CM (complete main)
Format settings, Endianness : Big
Codec ID : A_AC3
Duration : 1h 30mn
Bit rate mode : Constant
Bit rate : 448 Kbps
Channel(s) : 6 channels
Channel positions : Front: L C R, Side: L R, LFE
Sampling rate : 48.0 KHz
Bit depth : 16 bits
Compression mode : Lossy
Delay relative to video : 59ms
Stream size : 291 MiB (13%)
Title : DD 5.1 @ 448 kbps
Language : English
Default : No
Forced : No

Text #1
ID : 4
Format : UTF-8
Codec ID : S_TEXT/UTF8
Codec ID/Info : UTF-8 Plain Text
Language : English
Default : No
Forced : No

Text #2
ID : 5
Format : UTF-8
Codec ID : S_TEXT/UTF8
Codec ID/Info : UTF-8 Plain Text
Language : Russian
Default : No
Forced : No



Автор рипа: pb.wtf



Скачать Срочная доставка через торрент http://3.firepic.org/3/images/2012-11/30/wt5mdx9w2tni.png Скачать фильм Срочная доставка через торрент бесплантно в хорошем качестве Описание: Нью-йоркский посыльный в один прекрасный день забирает некий конверт в Колумбийском университете. Но оказывается, что содержимое ... 10 10 3
Info! Золотая раздача, скачанное не засчитывается.
Торрент: Зарегистрирован [2012-12-09 22:28] · скачан: 428 раз
Статус: √ проверено
Размер: 2.18 GB
Как cкачать? Как скачать Срочная доставка через торрент | UTorrent

% Раздел Тема Автор DL S | L
Фильмы 2012 [ 1.46 GB ] Срочная доставка / Premium Rush [2012 BDRip-AVC] MVO Rzhavec Скачать
1 | 0
Фильмы 2012 [ 1.37 GB ] Срочная доставка / Premium Rush [2012 DVDRip MVO лицензия] gnev78 Скачать
1 | 0
Фильмы [HD 720p, 1080p] (Хороший звук DUB, MVO) [ 8.04 GB ] Срочная доставка / Premium Rush [2012 BDRip 1080p MVO лицензия] Ke$h@ Скачать
1 | 0
Фильмы [HD 720p, 1080p] (Хороший звук DUB, MVO) [ 4.94 GB ] Срочная доставка / Premium Rush [2012 BDRip 720p MVO лицензия] Ke$h@ Скачать
1 | 0
Фильмы 2012 [ 3.31 GB ] Срочная доставка / Premium Rush [2012 BDRip MVO лицензия] + Orig + Sub slaventi-69 Скачать
1 | 0
Фильмы 2012 [ 1.46 GB ] Срочная доставка / Premium Rush [2012 / / HDRip / MVO [ лицензия ]] akcent Скачать
1 | 0
Фильмы 2012 [ 700 MB ] Срочная доставка / Premium Rush [2012 HDRip MVO лицензия] JhaWithYou Скачать
1 | 0

28-11-2019 20:33  

Отключить всю рекламу на сайте

    Дорогой пользователь! Огромная просьба, поблагодарите релизера, оцените раздачу и оставьте свои комментарий, если Вы скачали Срочная доставка через торрент бесплатно! Внесите свою лепту в развитие PiratBit!
    Комментировать посты могут только пользователи прошедшие не сложную регистрацию
    Показать сообщения:    

    Срочная доставка через торрент
    Скачать бесплатно Срочная доставка
    Срочная доставка скачать торрент
    Срочная доставка смотреть онлайн
    Cкачать фильм Срочная доставка бесплатно
    Срочная доставка скачать торрент в хорошем качестве
    Срочная доставка смотреть онлайн бесплатно в хорошем качестве


    Вы не можете начинать темы
    Вы не можете отвечать на сообщения
    Вы не можете редактировать свои сообщения
    Вы не можете удалять свои сообщения
    Вы не можете голосовать в опросах
    Вы не можете прикреплять файлы к сообщениям
    Вы можете скачивать файлы