Всегда рабочее зеркало без VPN и Proxy просто перед .vidak.icu напиши любое слово или цифру, Пример http://1acv.vidak.icu

MVO

MVO

1 сезон

1

1 сезон

iTunes

1 сезон

13

1 сезон

Deluxe

pack

Рекомендуем

Repack

30

ВАЖНО

RePack

MK11

RePack

jed

RePack

fifa19

RePack

RDR2

RePack

NEED FOR SPEED™ PAYBACK

Кинопоиск HD

6 сезон

 Острые козырьки 6 сезон

Все сериалы

все сериалы на PB.wtf

RePack

FAR CRY 5
  
Magnet ссылка

Наша Russia: Яйца судьбы (Глеб Орлов) [2010 г., комедия, BDRip, оригинал] pb.wtf

Наша Russia: Яйца судьбы через торрент pb.wtf

Размер: 1.46 GB | Добавлен: 9 лет 8 мес. назад | Торрент скачан:26 раз
Смотреть онлайн Наша Russia: Яйца судьбы | Скачать    Ребята, помогите собрать деньги на оплату серверов!!!

10-12-2012 05:17 Наша Russia: Яйца судьбы Скачать торрент  

Наша Russia: Яйца судьбы

Год выпуска: 2010
Страна: Россия
Жанр: комедия
Продолжительность: 86 мин. / 01:26
Перевод: Не требуется
Тип релиза: лицензия

Режиссер: Глеб Орлов
Продюссер: Роман Петренко, Александр Дулерайн, Артур Джанибекян
Сценарий: Семен Слепаков, Вячеслав Дусмухаметов, Алексей Ляпоров

Бюджет: $2 000 000
Премьера в мире: 21 января 2010

Мировой рейтинг IMDB 5.20 (902)


В ролях: Сергей Светлаков, Михаил Галустян, Валерий Магдьяш, Виктор Вержбицкий, Александр Семчев, Роман Мадянов, Яна Романченко, Николай Басков, Янина Колесниченко, Нелли Неведина

Описание: Рафшан и Джумжуд, гастарбайтеры из Нубарашена, нелегально приезжают в Москву, где бригадир Леонид получил у одного олигарха заказ на супердорогой ремонт. Потеряв в столице «нацайника», Рафшан и Джумжуд пытаются найти и спасти его, сея повсюду разрушения и хаос. Но в самой безнадёжной ситуации судьба поворачивается к гастарбайтерам лицом — Рафшан и Джумжуд узнают страшную тайну, которая изменит всё...

Качество: BDRip
Формат: AVI
Видео кодек: XviD
Аудио кодек: AC3
Видео: 1952кбрs,720x304 (2.35:1),at23.976fps.MPEG-4 visual(Xvid) (Advanced [email protected])(brov1/Custom Matrix)
Аудио#1: 448кбps.48.0 KHz,16bits, 6 канала (ов),AC-3




Oбщее
Complete name : D:торентыНовая папкаNasha.Russia.Yayca.Sudbi.2010.BDRip.XviD.AC3.-HQ-ViDEO.avi
Format : AVI
Format/Info : Audio Video Interleave
File size : 1.46 GiB
Duration : 1h 26mn
Overall bit rate : 2 410 Kbps
Writing application : VirtualDubModRus 1.5.10.2 (build 2542/release)
Writing library : VirtualDubMod build 2542/release

видео
Format : MPEG-4 Visual
Format profile : Advanced [email protected]
Format settings, BVOP : 1
Format settings, QPel : No
Format settings, GMC : No warppoints
Format settings, Matrix : Custom
Codec ID : XVID
Codec ID/Hint : XviD
Duration : 1h 26mn
Bit rate : 1 952 Kbps
Width : 720 pixels
Height : 304 pixels
Display aspect ratio : 2.35:1
Frame rate : 23.976 fps
Color space : YUV
Chroma subsampling : 4:2:0
Bit depth : 8 bits
Scan type : Progressive
Compression mode : Lossy
Bits/(Pixel*Frame) : 0.372
Stream size : 1.18 GiB (81%)
Writing library : XviD 1.2.1 (UTC 2008-12-04)

Audio

Format : AC-3
Format/Info : Audio Coding 3
Mode extension : CM (complete main)
Format settings, Endianness : Big
Codec ID : 2000
Duration : 1h 26mn
Bit rate mode : Constant
Bit rate : 448 Kbps
Channel(s) : 6 channels
Channel positions : Front: L C R, Side: L R, LFE
Sampling rate : 48.0 KHz
Bit depth : 16 bits
Compression mode : Lossy
Stream size : 277 MiB (19%)
Alignment : Split accross interleaves
Interleave, duration : 42 ms (1.00 video frame)
Interleave, preload duration : 500 ms

Наша Russia: Яйца судьбы скачать торрент


pb.wtf



Скачать Наша Russia: Яйца судьбы через торрент https://pic1.kartinco.top/images/111/ihydra8cqt.jpg Скачать, смотреть онлайн Наша Russia: Яйца судьбы бесплантно в хорошем качестве Описание: Рафшан и Джумжуд, гастарбайтеры из Нубарашена, нелегально приезжают в Москву, где бригадир Леонид получил у одного олигарха заказ ... 8.8 10 8
Info! Золотая раздача, скачанное не засчитывается.
Торрент: Зарегистрирован [2012-12-10 05:17] · скачан: 26 раз
Статус: √ проверено
Размер: 1.46 GB
Как cкачать? Как скачать Наша Russia: Яйца судьбы через торрент | UTorrent

% Раздел Тема Автор DL S | L
Наши фильмы (Blu-ray, BD-Remux, HDDVD) [ 15.59 GB ] Наша Russia: Яйца судьбы [2010 пародия BDRemux 1080p] Ворон Скачать
1 | 0
Наши фильмы 2010-2011 [ 1.37 GB ] Наша Russia: Яйца судьбы [2010 DVDRip] DEVI Скачать
1 | 0


Последний раз редактировалось: ALIK1989 (2012-12-10 08:56), всего редактировалось 5 раз(а)

28-11-2019 20:33  

Отключить вcю реклaмy на сайте

10-12-2012 05:29 Наша Russia: Яйца судьбы Скачать торрент  

сэмпл добавьте пожалуйста.
Как изготовить минутный видео сэмпл
Добавьте пожалуйста MediaIfo
Как получить информацию по видео файлу?

ALIK1989 писал(а):

Видео: 1280x544 (2.35:1) at 23.976 fps, ~5719 kbps avg

Цитата:

14.2 Скриншоты должны соответствовать размеру кадра раздаваемого видео файла

pb.wtf



10-12-2012 06:17 Наша Russia: Яйца судьбы Скачать торрент  

скинтшоты я сам зделал из филмаpb.wtf



    Дорогой пользователь! Огромная просьба, поблагодарите релизера, оцените раздачу и оставьте свои комментарий, если Вы скачали Наша Russia: Яйца судьбы через торрент бесплатно!
    Комментировать посты могут только пользователи прошедшие не сложную регистрацию
    Показать сообщения:    

    Наша Russia: Яйца судьбы через торрент
    Скачать бесплатно Наша Russia: Яйца судьбы
    Наша Russia: Яйца судьбы скачать торрент
    Наша Russia: Яйца судьбы смотреть онлайн
    Cкачать фильм Наша Russia: Яйца судьбы бесплатно
    Наша Russia: Яйца судьбы скачать торрент в хорошем качестве
    Наша Russia: Яйца судьбы смотреть онлайн бесплатно в хорошем качестве


    Вы не можете начинать темы
    Вы не можете отвечать на сообщения
    Вы не можете редактировать свои сообщения
    Вы не можете удалять свои сообщения
    Вы не можете голосовать в опросах
    Вы не можете прикреплять файлы к сообщениям
    Вы можете скачивать файлы