Ссылка на приватное зеркало нашего сайта всего за 1$. Внимание количество ограничено!!!

2 сезон

iTunes

1 сезон

1

iTunes

iTunes

iTunes

1 сезон

RePack

30

ИГРА 18+

pack

ВАЖНО

!!Акция!!

Alien_RageХит недели

RePack

MK11
pack

Забери бонус

RePack

jed

!!Акция!!

Alien_Rage

RePack

fifa19

RePack

Assassins Creed: Odyssey

RePack

NEED FOR SPEED™ PAYBACK

4 сезон

9 сезон

Бесстыжие 9 сезон

Все сериалы

все сериалы на PB.wtf

RePack

FAR CRY 5
  

Шаг вперед 4 / Step Up Revolution (Скотт Спир) [2012 г., драма, мелодрама, музыка, BDRip 720p, DUB, лицензия] pb.wtf

Шаг вперед 4 через торрент pb.wtf

Размер: 3.93 GB | Добавлен: 7 лет 10 мес. назад | Торрент скачан:108 раз
Скачать  

10-12-2012 08:55 Шаг вперед 4 Скачать торрент  

Шаг вперед 4 / Step Up Revolution

Год выпуска: 2012
Страна: США
Жанр: драма, мелодрама, музыка
Продолжительность: 01:38:37
Перевод: Дубляж, Лицензия

Режиссер: Скотт Спир
Продюссер: Эрик Фейг, Дженнифер Джибгот, Гаррет Грант
Сценарий: Аманда Броди, Дуан Адлер

Мировой рейтинг IMDB 6.20 (14 725)


В ролях: Райан Гузман, Кэтрин МакКормик, Миша Гэбриел Хэмилтон, Клеопатра Коулмэн, Стивен Стэннерт, Томми Дьюи, Питер Галлахер, Майкл «Ксено» Лэнджбек, Клаудио Пинто, Николь Дабо, Александр Гаврилин, Вероника Саркисова, Кирилл Туранский, Дмитрий Курта, Анна Денисова

Описание: Эмили, дочь влиятельного бизнесмена, приезжает в Майами с намерением стать профессиональной танцовщицей, но влюбляется в Шона — юношу, чья танцевальная труппа устраивает музыкальные флэшмобы. Команда, называющаяся MOB, участвует в конкурсе с внушительным денежным призом, а тем временем отец Эмили намеревается перестроить родной район ребят и переселить тысячи людей. Эмили присоединяется к танцорам и организует протестные мобы, рискуя не осуществить мечту, но сражаясь за нечто более важное.

Качество: BDRip 720p
Формат: MKV
Видео кодек: H.26x
Аудио кодек: AC3
Видео: AVC, ~4 810 Kbps, 1280x534 (2.397:1), 23.976 fps
Аудио#1: AC3, ~448 Kbps, 6 channels, 48.0 KHz - Rus [Dub, BD RUS]
Аудио#2: AC3, ~448 Kbps, 6 channels, 48.0 KHz - Eng
General
Unique ID : 201145603829243448418434981000036991294 (0x97533BF1E32E39899CB06E50FB87C13E)
Complete name : Step_Up_Revolution.2012.BDRip.720p.x264.AC3.Rus.Eng.-doclogan.mkv
Format : Matroska
Format version : Version 2
File size : 3.93 GiB
Duration : 1h 38mn
Overall bit rate : 5 707 Kbps
Movie name : Step Up Revolution (2012) [BDRip 720p BD US -doclogan]
Encoded date : UTC 2012-11-30 00:55:33
Writing application : mkvmerge v5.8.0 ('No Sleep / Pillow') built on Sep 2 2012 15:37:04
Writing library : libebml v1.2.3 + libmatroska v1.3.0

Video
ID : 1
Format : AVC
Format/Info : Advanced Video Codec
Format profile : High@L4.1
Format settings, CABAC : Yes
Format settings, ReFrames : 10 frames
Codec ID : V_MPEG4/ISO/AVC
Duration : 1h 38mn
Bit rate : 4 810 Kbps
Width : 1 280 pixels
Height : 534 pixels
Display aspect ratio : 2.40:1
Frame rate : 23.976 fps
Color space : YUV
Chroma subsampling : 4:2:0
Bit depth : 8 bits
Scan type : Progressive
Bits/(Pixel*Frame) : 0.294
Stream size : 3.24 GiB (82%)
Title : x264, ~4 810 Kbps, 1280x534 (2.397:1), 23.976 fps [BDRip, BD US, -doclogan]
Writing library : x264 core 120 r2146 bcd41db
Encoding settings : cabac=1 / ref=10 / deblock=1:-3:-3 / analyse=0x3:0x113 / me=umh / subme=10 / psy=1 / psy_rd=1.00:0.05 / mixed_ref=1 / me_range=32 / chroma_me=1 / trellis=2 / 8x8dct=1 / cqm=0 / deadzone=21,11 / fast_pskip=0 / chroma_qp_offset=-2 / threads=8 / sliced_threads=0 / nr=0 / decimate=1 / interlaced=0 / bluray_compat=0 / constrained_intra=0 / bframes=5 / b_pyramid=2 / b_adapt=2 / b_bias=0 / direct=3 / weightb=1 / open_gop=0 / weightp=2 / keyint=250 / keyint_min=23 / scenecut=40 / intra_refresh=0 / rc=2pass / mbtree=0 / bitrate=4810 / ratetol=1.0 / qcomp=0.70 / qpmin=0 / qpmax=69 / qpstep=4 / cplxblur=20.0 / qblur=0.5 / ip_ratio=1.40 / pb_ratio=1.30 / aq=2:0.90
Language : English
Default : Yes
Forced : No

Audio #1
ID : 2
Format : AC-3
Format/Info : Audio Coding 3
Mode extension : CM (complete main)
Format settings, Endianness : Big
Codec ID : A_AC3
Duration : 1h 38mn
Bit rate mode : Constant
Bit rate : 448 Kbps
Channel(s) : 6 channels
Channel positions : Front: L C R, Side: L R, LFE
Sampling rate : 48.0 KHz
Bit depth : 16 bits
Compression mode : Lossy
Stream size : 316 MiB (8%)
Title : AC3, ~448 Kbps, 6 channels, 48.0 KHz [Dub, BD RUS]
Language : Russian
Default : Yes
Forced : No

Audio #2
ID : 3
Format : AC-3
Format/Info : Audio Coding 3
Mode extension : CM (complete main)
Format settings, Endianness : Big
Codec ID : A_AC3
Duration : 1h 38mn
Bit rate mode : Constant
Bit rate : 448 Kbps
Channel(s) : 6 channels
Channel positions : Front: L C R, Side: L R, LFE
Sampling rate : 48.0 KHz
Bit depth : 16 bits
Compression mode : Lossy
Stream size : 316 MiB (8%)
Title : AC3, ~448 Kbps, 6 channels, 48.0 KHz [Original]
Language : English
Default : No
Forced : No

Text #1
ID : 4
Format : UTF-8
Codec ID : S_TEXT/UTF8
Codec ID/Info : UTF-8 Plain Text
Title : BD RUS
Language : Russian
Default : No
Forced : No

Text #2
ID : 5
Format : UTF-8
Codec ID : S_TEXT/UTF8
Codec ID/Info : UTF-8 Plain Text
Language : English
Default : No
Forced : No

Menu
00:00:00.000 : en:00:00:00.000
00:05:36.836 : en:00:05:36.836
00:07:25.236 : en:00:07:25.236
00:11:46.915 : en:00:11:46.915
00:14:00.465 : en:00:14:00.465
00:16:54.513 : en:00:16:54.513
00:20:22.680 : en:00:20:22.680
00:23:16.228 : en:00:23:16.228
00:27:37.990 : en:00:27:37.990
00:32:30.323 : en:00:32:30.323
00:36:58.383 : en:00:36:58.383
00:39:49.387 : en:00:39:49.387
00:42:43.478 : en:00:42:43.478
00:45:50.081 : en:00:45:50.081
00:49:37.141 : en:00:49:37.141
00:56:35.642 : en:00:56:35.642
00:58:43.979 : en:00:58:43.979
01:02:47.097 : en:01:02:47.097
01:07:05.939 : en:01:07:05.939
01:11:52.391 : en:01:11:52.391
01:15:35.072 : en:01:15:35.072
01:17:22.847 : en:01:17:22.847
01:26:01.865 : en:01:26:01.865
01:31:32.195 : en:01:31:32.195


Шаг вперед 4 скачать торрент


pb.wtf



Скачать Шаг вперед 4 через торрент http://i48.fastpic.ru/big/2012/1129/0d/95f8df7981e183173b1b81459015ce0d.jpg Скачать фильм Шаг вперед 4 через торрент бесплантно в хорошем качестве Описание: Эмили, дочь влиятельного бизнесмена, приезжает в Майами с намерением стать профессиональной танцовщицей, но влюбляется в Шона — ... 10 10 2
Info! Золотая раздача, скачанное не засчитывается.
Торрент: Зарегистрирован [2012-12-10 08:55] · скачан: 108 раз
Статус: √ проверено
Размер: 3.93 GB
Как cкачать? Как скачать Шаг вперед 4 через торрент | qTorrent

% Раздел Тема Автор DL S | L
Фильмы 2012 [ 1.45 GB ] Шаг вперед 4 / Step Up Revolution [2012 музыка HDRip-AVC] Dub () sokol_ok Скачать
2 | 0
Фильмы 2012 [ 2.18 GB ] Шаг вперед 4 / Step Up Revolution [2012 музыка BDRip-AVC] [US-Transfer] DUB + Original + Sub potroks Скачать
1 | 0
Фильмы 2012 [ 1.45 GB ] Шаг вперед 4 / Step Up Revolution [2012 музыка HDRip DUB лицензия] Userman4ik Скачать
1 | 0
Фильмы [HD 720p, 1080p] (Хороший звук DUB, MVO) [ 13.96 GB ] Шаг вперед 4 / Step Up Revolution [2012 музыка BDRip 720p лицензия] Ke$h@ Скачать
1 | 0
Официальные cаундтреки к зарубежным фильмам [ 618 MB ] Шаг вперёд 4 / Step Up Revolution - 2012 / MP3 / 320 kbps / Soundtrack Убица хомячков Скачать
1 | 0
Фильмы [HD 720p, 1080p] (Хороший звук DUB, MVO) [ 6.44 GB ] Шаг вперед 4 / Step Up Revolution [2012 музыка BDRip 720p DUB + Оригинал] Sудья Скачать
1 | 0
3D Фильмы [ 7.77 GB ] Шаг вперед 4 / Step Up Revolution [2012 музыка BDRip 3D 1080p DUB лицензия]Горизонтальная анаморфная стереопара Userman4ik Скачать
1 | 0

28-11-2019 20:33  

Отключить всю рекламу на сайте

10-12-2012 09:01 Шаг вперед 4 Скачать торрент  

...попросили я залилpb.wtf



10-12-2012 09:08 Шаг вперед 4 Скачать торрент  

ну и еще скорости,товарищь!pb.wtf



10-12-2012 09:36 Шаг вперед 4 Скачать торрент  

Спасибо большое.pb.wtf



    Дорогой пользователь! Огромная просьба, поблагодарите релизера, оцените раздачу и оставьте свои комментарий, если Вы скачали Шаг вперед 4 через торрент бесплатно! Внесите свою лепту в развитие PiratBit!
    Комментировать посты могут только пользователи прошедшие не сложную регистрацию
    Показать сообщения:    

    Шаг вперед 4 через торрент
    Скачать бесплатно Шаг вперед 4
    Шаг вперед 4 скачать торрент
    Шаг вперед 4 смотреть онлайн
    Cкачать фильм Шаг вперед 4 бесплатно
    Шаг вперед 4 скачать торрент в хорошем качестве
    Шаг вперед 4 смотреть онлайн бесплатно в хорошем качестве


    Вы не можете начинать темы
    Вы не можете отвечать на сообщения
    Вы не можете редактировать свои сообщения
    Вы не можете удалять свои сообщения
    Вы не можете голосовать в опросах
    Вы не можете прикреплять файлы к сообщениям
    Вы можете скачивать файлы