1 сезон

3 сезон

iTunes

1

iTunes

MVO

iTunes

13

1 сезон

RePack

30

Deluxe

pack

Лицензия

ВАЖНО

ИГРА 18+

pack

RePack

MK11

RePack

jed

RePack

fifa19

RePack

RDR2

RePack

NEED FOR SPEED™ PAYBACK

4 сезон

9 сезон

Бесстыжие 9 сезон

Все сериалы

все сериалы на PB.wtf

RePack

FAR CRY 5

Anonymous, доброй ночи, мы катастрофически не успеваем собрать деньги на оплату серверов, помогите нам пожалуйста 5,10,15р., для нас важна любая помощь . В качестве благодарности мы отключим Вам всю рекламу на сайте (укажите свой ник в строку Ваше имя)!

×
  
Magnet ссылка

Путешествия во времени (Райан Джонсон) [2012 г., Фантастика, боевик, триллер, DVD5, DUB, лицензия] pb.wtf

Путешествия во времени через торрент pb.wtf

Размер: 4.21 GB | Добавлен: 8 лет 8 мес. назад | Торрент скачан:120 раз
Скачать  

18-11-2012 07:38 Путешествия во времени Скачать торрент  

Петля времени / Looper

Год выпуска: 2012
Страна: США, Китай
Жанр: Фантастика, боевик, триллер
Продолжительность: 01:53:45
Перевод: Дубляж, Лицензия

Режиссер: Райан Джонсон
Продюссер: Рэм Бергман, Джеймс Д. Штерн, Кристофер С. Чен
Сценарий: Райан Джонсон

Бюджет: $30 000 000
Премьера в мире: 6 сентября 2012

MPAA: R лицам до 17 лет обязательно присутствие взрослого
IMDb: 8.00 (75 451) ожидание: 95% (40 999)
Кинопоиск: 7.386 21 731

В ролях: Джозеф Гордон-Левитт, Брюс Уиллис, Эмили Блант, Джефф Дэниелс, Ной Сеган, Пирс Гэнон, Пол Дано, Пайпер Перабо, Квинг Ксу, Трейси Томс

Описание: В недалеком будущем, где стали возможны путешествия во времени, некая корпорация убирает нежелательных людей, отправляя их в прошлое в пластиковых пакетах. Задача принимающей стороны — убить жертву, стерев тем самым несчастного из истории. Все идет гладко до тех пор, пока главный герой не распаковывает очередной пакет, обнаруживая в нем… самого себя из будущего.

Доп. информация: Дата российской премьеры: 27 сентября 2012, «Top Film Distribution»
Дата выхода DVD релиза: 29 ноября 2012, «Новый Диск», «New Dream media»

Качество: DVD5
Формат: DVD Video
Видео кодек: MPEG2
Аудио кодек: AC3
Видео: MPEG-2, 720x576 (PAL 16:9), 25,000 кадров/сек.,~4300 kbps, Bit/Pixel: 0.424
Аудио#1: AC3 5.1, 448 kbps [Английский - оригинал]
Аудио#2: AC3 5.1, 448 kbps [Русский - дублированный]












Общее
Полное имя : D:torrentПетля.времени-Looper.(2012).DVD5.KinomanVIDEO_TSVIDEO_TS.BUP
Формат : DVD Video
Профиль формата : Menu
Размер файла : 12,0 Кбайт
Режим общего битрейта : Переменный

Видео
Идентификатор : 224 (0xE0)
Формат : MPEG Video
Версия формата : Version 2
Вид битрейта : Переменный
Ширина : 720 пикселей
Высота : 576 пикселей
Соотношение сторон : 4:3
Частота кадров : 25,000 кадров/сек
Стандарт вещания : PAL
Метод сжатия : С потерями

Аудио
Формат : AC-3
Формат/Информация : Audio Coding 3
Каналы : 2 канала
Частота : 48,0 КГц
Метод сжатия : С потерями

Текст
Формат : RLE
Формат/Информация : Run-length encoding
Битовая глубина : 2 бит

Общее
Полное имя : D:torrentПетля.времени-Looper.(2012).DVD5.KinomanVIDEO_TSVIDEO_TS.IFO
Формат : DVD Video
Профиль формата : Menu
Размер файла : 12,0 Кбайт
Режим общего битрейта : Переменный

Видео
Идентификатор : 224 (0xE0)
Формат : MPEG Video
Версия формата : Version 2
Вид битрейта : Переменный
Ширина : 720 пикселей
Высота : 576 пикселей
Соотношение сторон : 4:3
Частота кадров : 25,000 кадров/сек
Стандарт вещания : PAL
Метод сжатия : С потерями

Аудио
Формат : AC-3
Формат/Информация : Audio Coding 3
Каналы : 2 канала
Частота : 48,0 КГц
Метод сжатия : С потерями

Текст
Формат : RLE
Формат/Информация : Run-length encoding
Битовая глубина : 2 бит

Общее
Полное имя : D:torrentПетля.времени-Looper.(2012).DVD5.KinomanVIDEO_TSVIDEO_TS.VOB
Формат : MPEG-PS
Размер файла : 3,00 Мбайт
Продолжительность : 1 м. 45 с.
Режим общего битрейта : Переменный
Общий поток : 240 Кбит/сек

Видео
Идентификатор : 224 (0xE0)
Формат : MPEG Video
Версия формата : Version 2
Профиль формата : Main@Main
Параметр BVOP формата : Нет
Параметр матрицы формата : По умолчанию
Продолжительность : 40 мс.
Вид битрейта : Переменный
Битрейт : 42,9 Кбит/сек
Максимальный битрейт : 9000 Кбит/сек
Ширина : 720 пикселей
Высота : 576 пикселей
Соотношение сторон : 4:3
Частота кадров : 25,000 кадров/сек
Стандарт вещания : PAL
Цветовое пространство : YUV
Субдискретизация насыщенности : 4:2:0
Битовая глубина : 8 бит
Тип развёртки : Прогрессивная
Порядок развёртки : Верхнее поле первое
Метод сжатия : С потерями
Бит/(Пиксели*Кадры) : 0.004
Размер потока : 214 байт (0%)
Основные цвета : BT.601 PAL
Характеристики трансфера : BT.470 System B, BT.470 System G
Коэффициенты матрицы : BT.601

Аудио
Идентификатор : 189 (0xBD)-128 (0x80)
Формат : AC-3
Формат/Информация : Audio Coding 3
Расширение режима : CM (complete main)
Параметр Endianness формата : Big
Режим смешивания : DVD-Video
Продолжительность : 1 м. 45 с.
Вид битрейта : Постоянный
Битрейт : 192 Кбит/сек
Каналы : 2 канала
Расположение каналов : Front: L R
Частота : 48,0 КГц
Битовая глубина : 16 бит
Метод сжатия : С потерями
Размер потока : 2,41 Мбайт (80%)

Текст
Идентификатор : 189 (0xBD)-32 (0x20)
Формат : RLE
Формат/Информация : Run-length encoding
Режим смешивания : DVD-Video
Продолжительность : 192 мс.

Меню

Общее
Полное имя : D:torrentПетля.времени-Looper.(2012).DVD5.KinomanVIDEO_TSVTS_01_0.BUP
Формат : DVD Video
Профиль формата : Program
Размер файла : 14,0 Кбайт
Продолжительность : 1 м. 47 с.
Режим общего битрейта : Переменный
Общий поток : 1066 бит/сек

Видео
Идентификатор : 224 (0xE0)
Формат : MPEG Video
Версия формата : Version 2
Продолжительность : 1 м. 47 с.
Вид битрейта : Переменный
Ширина : 720 пикселей
Высота : 576 пикселей
Соотношение сторон : 16:9
Частота кадров : 25,000 кадров/сек
Стандарт вещания : PAL
Метод сжатия : С потерями

Аудио
Идентификатор : 128 (0x80)
Формат : AC-3
Формат/Информация : Audio Coding 3
Продолжительность : 1 м. 47 с.
Каналы : 2 канала
Частота : 48,0 КГц
Метод сжатия : С потерями
Язык : English

Меню #1
Продолжительность : 1 м. 47 с.
00:00:00.000 : Chapter 1
00:00:25.520 : Chapter 2
00:00:41.920 : Chapter 3
00:00:59.200 : Chapter 4
00:01:13.000 : Chapter 5
00:01:26.800 : Chapter 6
List (Audio) : 0

Меню #2
Продолжительность : 6 с. 640 мс.
00:00:00.000 : Chapter 1

Меню #3

Общее
Полное имя : D:torrentПетля.времени-Looper.(2012).DVD5.KinomanVIDEO_TSVTS_01_0.IFO
Формат : DVD Video
Профиль формата : Program
Размер файла : 14,0 Кбайт
Продолжительность : 1 м. 47 с.
Режим общего битрейта : Переменный
Общий поток : 1066 бит/сек

Видео
Идентификатор : 224 (0xE0)
Формат : MPEG Video
Версия формата : Version 2
Продолжительность : 1 м. 47 с.
Вид битрейта : Переменный
Ширина : 720 пикселей
Высота : 576 пикселей
Соотношение сторон : 16:9
Частота кадров : 25,000 кадров/сек
Стандарт вещания : PAL
Метод сжатия : С потерями

Аудио
Идентификатор : 128 (0x80)
Формат : AC-3
Формат/Информация : Audio Coding 3
Продолжительность : 1 м. 47 с.
Каналы : 2 канала
Частота : 48,0 КГц
Метод сжатия : С потерями
Язык : English

Меню #1
Продолжительность : 1 м. 47 с.
00:00:00.000 : Chapter 1
00:00:25.520 : Chapter 2
00:00:41.920 : Chapter 3
00:00:59.200 : Chapter 4
00:01:13.000 : Chapter 5
00:01:26.800 : Chapter 6
List (Audio) : 0

Меню #2
Продолжительность : 6 с. 640 мс.
00:00:00.000 : Chapter 1

Меню #3

Общее
Полное имя : D:torrentПетля.времени-Looper.(2012).DVD5.KinomanVIDEO_TSVTS_01_1.VOB
Формат : MPEG-PS
Размер файла : 84,4 Мбайт
Продолжительность : 1 м. 47 с.
Режим общего битрейта : Переменный
Общий поток : 6585 Кбит/сек

Видео
Идентификатор : 224 (0xE0)
Формат : MPEG Video
Версия формата : Version 2
Профиль формата : Main@Main
Параметр BVOP формата : Да
Параметр матрицы формата : Выборочная
Продолжительность : 1 м. 47 с.
Вид битрейта : Переменный
Битрейт : 6262 Кбит/сек
Максимальный битрейт : 8000 Кбит/сек
Ширина : 720 пикселей
Высота : 576 пикселей
Соотношение сторон : 16:9
Частота кадров : 25,000 кадров/сек
Стандарт вещания : PAL
Цветовое пространство : YUV
Субдискретизация насыщенности : 4:2:0
Битовая глубина : 8 бит
Тип развёртки : Чересстрочная
Порядок развёртки : Верхнее поле первое
Метод сжатия : С потерями
Бит/(Пиксели*Кадры) : 0.604
Размер потока : 80,3 Мбайт (95%)

Аудио
Идентификатор : 189 (0xBD)-128 (0x80)
Формат : AC-3
Формат/Информация : Audio Coding 3
Расширение режима : CM (complete main)
Параметр Endianness формата : Big
Режим смешивания : DVD-Video
Продолжительность : 1 м. 47 с.
Вид битрейта : Постоянный
Битрейт : 192 Кбит/сек
Каналы : 2 канала
Расположение каналов : Front: L R
Частота : 48,0 КГц
Битовая глубина : 16 бит
Метод сжатия : С потерями
Размер потока : 2,46 Мбайт (3%)

Меню

Общее
Полное имя : D:torrentПетля.времени-Looper.(2012).DVD5.KinomanVIDEO_TSVTS_02_0.BUP
Формат : DVD Video
Профиль формата : Program
Размер файла : 80,0 Кбайт
Продолжительность : 1 ч. 53 м.
Режим общего битрейта : Переменный
Общий поток : 96 бит/сек

Видео
Идентификатор : 224 (0xE0)
Формат : MPEG Video
Версия формата : Version 2
Продолжительность : 1 ч. 53 м.
Вид битрейта : Переменный
Ширина : 720 пикселей
Высота : 576 пикселей
Соотношение сторон : 16:9
Частота кадров : 25,000 кадров/сек
Стандарт вещания : PAL
Метод сжатия : С потерями

Аудио #1
Идентификатор : 128 (0x80)
Формат : AC-3
Формат/Информация : Audio Coding 3
Продолжительность : 1 ч. 53 м.
Каналы : 6 каналов
Частота : 48,0 КГц
Метод сжатия : С потерями
Язык : English

Аудио #2
Идентификатор : 129 (0x81)
Формат : AC-3
Формат/Информация : Audio Coding 3
Продолжительность : 1 ч. 53 м.
Каналы : 6 каналов
Частота : 48,0 КГц
Метод сжатия : С потерями
Язык : Russian

Текст #1
Идентификатор : 32 (0x20)
Формат : RLE
Формат/Информация : Run-length encoding
Битовая глубина : 2 бит
Язык : Russian

Текст #2
Идентификатор : 33 (0x21)
Формат : RLE
Формат/Информация : Run-length encoding
Битовая глубина : 2 бит
Язык : Latvian

Текст #3
Идентификатор : 34 (0x22)
Формат : RLE
Формат/Информация : Run-length encoding
Битовая глубина : 2 бит
Язык : Estonian

Текст #4
Идентификатор : 35 (0x23)
Формат : RLE
Формат/Информация : Run-length encoding
Битовая глубина : 2 бит
Язык : Lithuanian

Меню
Продолжительность : 1 ч. 53 м.
00:00:00.000 : Chapter 1
00:20:24.120 : Chapter 2
00:39:08.160 : Chapter 3
00:59:22.080 : Chapter 4
01:18:18.120 : Chapter 5
01:37:50.200 : Chapter 6
List (Audio) : 0 / 1
List (Subtitles 4/3) : 0 / 1 / 2 / 3
List (Subtitles Wide) : 0 / 1 / 2 / 3
List (Subtitles Letterbox) : 0 / 1 / 2 / 3
List (Subtitles Pan&Scan) : 0 / 1 / 2 / 3

Общее
Полное имя : D:torrentПетля.времени-Looper.(2012).DVD5.KinomanVIDEO_TSVTS_02_0.IFO
Формат : DVD Video
Профиль формата : Program
Размер файла : 80,0 Кбайт
Продолжительность : 1 ч. 53 м.
Режим общего битрейта : Переменный
Общий поток : 96 бит/сек

Видео
Идентификатор : 224 (0xE0)
Формат : MPEG Video
Версия формата : Version 2
Продолжительность : 1 ч. 53 м.
Вид битрейта : Переменный
Ширина : 720 пикселей
Высота : 576 пикселей
Соотношение сторон : 16:9
Частота кадров : 25,000 кадров/сек
Стандарт вещания : PAL
Метод сжатия : С потерями

Аудио #1
Идентификатор : 128 (0x80)
Формат : AC-3
Формат/Информация : Audio Coding 3
Продолжительность : 1 ч. 53 м.
Каналы : 6 каналов
Частота : 48,0 КГц
Метод сжатия : С потерями
Язык : English

Аудио #2
Идентификатор : 129 (0x81)
Формат : AC-3
Формат/Информация : Audio Coding 3
Продолжительность : 1 ч. 53 м.
Каналы : 6 каналов
Частота : 48,0 КГц
Метод сжатия : С потерями
Язык : Russian

Текст #1
Идентификатор : 32 (0x20)
Формат : RLE
Формат/Информация : Run-length encoding
Битовая глубина : 2 бит
Язык : Russian

Текст #2
Идентификатор : 33 (0x21)
Формат : RLE
Формат/Информация : Run-length encoding
Битовая глубина : 2 бит
Язык : Latvian

Текст #3
Идентификатор : 34 (0x22)
Формат : RLE
Формат/Информация : Run-length encoding
Битовая глубина : 2 бит
Язык : Estonian

Текст #4
Идентификатор : 35 (0x23)
Формат : RLE
Формат/Информация : Run-length encoding
Битовая глубина : 2 бит
Язык : Lithuanian

Меню
Продолжительность : 1 ч. 53 м.
00:00:00.000 : Chapter 1
00:20:24.120 : Chapter 2
00:39:08.160 : Chapter 3
00:59:22.080 : Chapter 4
01:18:18.120 : Chapter 5
01:37:50.200 : Chapter 6
List (Audio) : 0 / 1
List (Subtitles 4/3) : 0 / 1 / 2 / 3
List (Subtitles Wide) : 0 / 1 / 2 / 3
List (Subtitles Letterbox) : 0 / 1 / 2 / 3
List (Subtitles Pan&Scan) : 0 / 1 / 2 / 3

Общее
Полное имя : D:torrentПетля.времени-Looper.(2012).DVD5.KinomanVIDEO_TSVTS_02_0.VOB
Формат : MPEG-PS
Размер файла : 57,0 Мбайт
Продолжительность : 1 м. 27 с.
Режим общего битрейта : Переменный
Общий поток : 5485 Кбит/сек

Видео
Идентификатор : 224 (0xE0)
Формат : MPEG Video
Версия формата : Version 2
Профиль формата : Main@Main
Параметр BVOP формата : Да
Параметр матрицы формата : По умолчанию
Продолжительность : 40 мс.
Вид битрейта : Переменный
Битрейт : 5184 Кбит/сек
Ширина : 720 пикселей
Высота : 576 пикселей
Соотношение сторон : 4:3
Частота кадров : 25,000 кадров/сек
Стандарт вещания : PAL
Цветовое пространство : YUV
Субдискретизация насыщенности : 4:2:0
Битовая глубина : 8 бит
Тип развёртки : Прогрессивная
Метод сжатия : С потерями
Бит/(Пиксели*Кадры) : 0.500
Размер потока : 25,3 Кбайт (0%)
Основные цвета : BT.601 PAL
Характеристики трансфера : BT.470 System B, BT.470 System G
Коэффициенты матрицы : BT.601

Аудио
Идентификатор : 189 (0xBD)-128 (0x80)
Формат : AC-3
Формат/Информация : Audio Coding 3
Расширение режима : CM (complete main)
Параметр Endianness формата : Big
Режим смешивания : DVD-Video
Продолжительность : 1 м. 27 с.
Вид битрейта : Постоянный
Битрейт : 192 Кбит/сек
Каналы : 2 канала
Расположение каналов : Front: L R
Частота : 48,0 КГц
Битовая глубина : 16 бит
Метод сжатия : С потерями
Размер потока : 2,00 Мбайт (4%)

Текст
Идентификатор : 189 (0xBD)-32 (0x20)
Формат : RLE
Формат/Информация : Run-length encoding
Режим смешивания : DVD-Video
Продолжительность : 256 мс.

Меню

Общее
Полное имя : D:torrentПетля.времени-Looper.(2012).DVD5.KinomanVIDEO_TSVTS_02_1.VOB
Формат : MPEG-PS
Размер файла : 1000 Мбайт
Продолжительность : 28 м.
Режим общего битрейта : Переменный
Общий поток : 4827 Кбит/сек

Видео
Идентификатор : 224 (0xE0)
Формат : MPEG Video
Версия формата : Version 2
Профиль формата : Main@Main
Параметр BVOP формата : Да
Параметр матрицы формата : Выборочная
Продолжительность : 28 м.
Вид битрейта : Переменный
Максимальный битрейт : 8000 Кбит/сек
Ширина : 720 пикселей
Высота : 576 пикселей
Соотношение сторон : 16:9
Частота кадров : 25,000 кадров/сек
Стандарт вещания : PAL
Цветовое пространство : YUV
Субдискретизация насыщенности : 4:2:0
Битовая глубина : 8 бит
Тип развёртки : Чересстрочная
Порядок развёртки : Верхнее поле первое
Метод сжатия : С потерями

Аудио #1
Идентификатор : 189 (0xBD)-128 (0x80)
Формат : AC-3
Формат/Информация : Audio Coding 3
Расширение режима : CM (complete main)
Параметр Endianness формата : Big
Режим смешивания : DVD-Video
Продолжительность : 28 м.
Вид битрейта : Постоянный
Битрейт : 448 Кбит/сек
Каналы : 6 каналов
Расположение каналов : Front: L C R, Side: L R, LFE
Частота : 48,0 КГц
Битовая глубина : 16 бит
Метод сжатия : С потерями
Размер потока : 92,8 Мбайт (9%)

Аудио #2
Идентификатор : 189 (0xBD)-129 (0x81)
Формат : AC-3
Формат/Информация : Audio Coding 3
Расширение режима : CM (complete main)
Параметр Endianness формата : Big
Режим смешивания : DVD-Video
Продолжительность : 28 м.
Вид битрейта : Постоянный
Битрейт : 448 Кбит/сек
Каналы : 6 каналов
Расположение каналов : Front: L C R, Side: L R, LFE
Частота : 48,0 КГц
Битовая глубина : 16 бит
Метод сжатия : С потерями
Размер потока : 92,8 Мбайт (9%)

Аудио #3
Идентификатор : 208 (0xD0)
Формат : MPEG Audio
Метод сжатия : С потерями

Текст #1
Идентификатор : 189 (0xBD)-32 (0x20)
Формат : RLE
Формат/Информация : Run-length encoding
Режим смешивания : DVD-Video

Текст #2
Идентификатор : 189 (0xBD)-33 (0x21)
Формат : RLE
Формат/Информация : Run-length encoding
Режим смешивания : DVD-Video

Текст #3
Идентификатор : 189 (0xBD)-34 (0x22)
Формат : RLE
Формат/Информация : Run-length encoding
Режим смешивания : DVD-Video

Текст #4
Идентификатор : 189 (0xBD)-35 (0x23)
Формат : RLE
Формат/Информация : Run-length encoding
Режим смешивания : DVD-Video

Меню

Общее
Полное имя : D:torrentПетля.времени-Looper.(2012).DVD5.KinomanVIDEO_TSVTS_02_2.VOB
Формат : MPEG-PS
Размер файла : 1000 Мбайт
Продолжительность : 27 м.
Режим общего битрейта : Переменный
Общий поток : 5111 Кбит/сек

Видео
Идентификатор : 224 (0xE0)
Формат : MPEG Video
Версия формата : Version 2
Профиль формата : Main@Main
Параметр BVOP формата : Да
Параметр матрицы формата : Выборочная
Продолжительность : 27 м.
Вид битрейта : Переменный
Битрейт : 4113 Кбит/сек
Максимальный битрейт : 8000 Кбит/сек
Ширина : 720 пикселей
Высота : 576 пикселей
Соотношение сторон : 16:9
Частота кадров : 25,000 кадров/сек
Стандарт вещания : PAL
Цветовое пространство : YUV
Субдискретизация насыщенности : 4:2:0
Битовая глубина : 8 бит
Тип развёртки : Чересстрочная
Порядок развёртки : Верхнее поле первое
Метод сжатия : С потерями
Бит/(Пиксели*Кадры) : 0.397
Размер потока : 805 Мбайт (80%)

Аудио #1
Идентификатор : 189 (0xBD)-128 (0x80)
Формат : AC-3
Формат/Информация : Audio Coding 3
Расширение режима : CM (complete main)
Параметр Endianness формата : Big
Режим смешивания : DVD-Video
Продолжительность : 27 м.
Вид битрейта : Постоянный
Битрейт : 448 Кбит/сек
Каналы : 6 каналов
Расположение каналов : Front: L C R, Side: L R, LFE
Частота : 48,0 КГц
Битовая глубина : 16 бит
Метод сжатия : С потерями
Задержка видео : -328 мс.
Размер потока : 87,6 Мбайт (9%)

Аудио #2
Идентификатор : 189 (0xBD)-129 (0x81)
Формат : AC-3
Формат/Информация : Audio Coding 3
Расширение режима : CM (complete main)
Параметр Endianness формата : Big
Режим смешивания : DVD-Video
Продолжительность : 27 м.
Вид битрейта : Постоянный
Битрейт : 448 Кбит/сек
Каналы : 6 каналов
Расположение каналов : Front: L C R, Side: L R, LFE
Частота : 48,0 КГц
Битовая глубина : 16 бит
Метод сжатия : С потерями
Задержка видео : -328 мс.
Размер потока : 87,6 Мбайт (9%)

Текст #1
Идентификатор : 189 (0xBD)-32 (0x20)
Формат : RLE
Формат/Информация : Run-length encoding
Режим смешивания : DVD-Video

Текст #2
Идентификатор : 189 (0xBD)-33 (0x21)
Формат : RLE
Формат/Информация : Run-length encoding
Режим смешивания : DVD-Video

Текст #3
Идентификатор : 189 (0xBD)-34 (0x22)
Формат : RLE
Формат/Информация : Run-length encoding
Режим смешивания : DVD-Video

Текст #4
Идентификатор : 189 (0xBD)-35 (0x23)
Формат : RLE
Формат/Информация : Run-length encoding
Режим смешивания : DVD-Video

Меню

Общее
Полное имя : D:torrentПетля.времени-Looper.(2012).DVD5.KinomanVIDEO_TSVTS_02_3.VOB
Формат : MPEG-PS
Размер файла : 1000 Мбайт
Продолжительность : 28 м.
Режим общего битрейта : Переменный
Общий поток : 4956 Кбит/сек

Видео
Идентификатор : 224 (0xE0)
Формат : MPEG Video
Версия формата : Version 2
Профиль формата : Main@Main
Параметр BVOP формата : Да
Параметр матрицы формата : Выборочная
Параметр GOP формата : M=3, N=15
Продолжительность : 28 м.
Вид битрейта : Переменный
Максимальный битрейт : 8000 Кбит/сек
Ширина : 720 пикселей
Высота : 576 пикселей
Соотношение сторон : 16:9
Частота кадров : 25,000 кадров/сек
Стандарт вещания : PAL
Цветовое пространство : YUV
Субдискретизация насыщенности : 4:2:0
Битовая глубина : 8 бит
Тип развёртки : Чересстрочная
Порядок развёртки : Верхнее поле первое
Метод сжатия : С потерями

Аудио #1
Идентификатор : 189 (0xBD)-128 (0x80)
Формат : AC-3
Формат/Информация : Audio Coding 3
Расширение режима : CM (complete main)
Параметр Endianness формата : Big
Режим смешивания : DVD-Video
Продолжительность : 28 м.
Вид битрейта : Постоянный
Битрейт : 448 Кбит/сек
Каналы : 6 каналов
Расположение каналов : Front: L C R, Side: L R, LFE
Частота : 48,0 КГц
Битовая глубина : 16 бит
Метод сжатия : С потерями
Задержка видео : -328 мс.
Размер потока : 90,4 Мбайт (9%)

Аудио #2
Идентификатор : 189 (0xBD)-129 (0x81)
Формат : AC-3
Формат/Информация : Audio Coding 3
Расширение режима : CM (complete main)
Параметр Endianness формата : Big
Режим смешивания : DVD-Video
Продолжительность : 28 м.
Вид битрейта : Постоянный
Битрейт : 448 Кбит/сек
Каналы : 6 каналов
Расположение каналов : Front: L C R, Side: L R, LFE
Частота : 48,0 КГц
Битовая глубина : 16 бит
Метод сжатия : С потерями
Задержка видео : -328 мс.
Размер потока : 90,4 Мбайт (9%)

Аудио #3
Идентификатор : 192 (0xC0)
Формат : MPEG Audio
Метод сжатия : С потерями

Текст #1
Идентификатор : 189 (0xBD)-32 (0x20)
Формат : RLE
Формат/Информация : Run-length encoding
Режим смешивания : DVD-Video
Задержка видео : 5 с. 800 мс.

Текст #2
Идентификатор : 189 (0xBD)-33 (0x21)
Формат : RLE
Формат/Информация : Run-length encoding
Режим смешивания : DVD-Video
Задержка видео : 5 с. 800 мс.

Текст #3
Идентификатор : 189 (0xBD)-34 (0x22)
Формат : RLE
Формат/Информация : Run-length encoding
Режим смешивания : DVD-Video
Задержка видео : 5 с. 800 мс.

Текст #4
Идентификатор : 189 (0xBD)-35 (0x23)
Формат : RLE
Формат/Информация : Run-length encoding
Режим смешивания : DVD-Video
Задержка видео : 5 с. 800 мс.

Меню

Общее
Полное имя : D:torrentПетля.времени-Looper.(2012).DVD5.KinomanVIDEO_TSVTS_02_4.VOB
Формат : MPEG-PS
Размер файла : 1000 Мбайт
Продолжительность : 25 м.
Режим общего битрейта : Переменный
Общий поток : 5397 Кбит/сек

Видео
Идентификатор : 224 (0xE0)
Формат : MPEG Video
Версия формата : Version 2
Профиль формата : Main@Main
Параметр BVOP формата : Да
Параметр матрицы формата : Выборочная
Параметр GOP формата : M=3, N=15
Продолжительность : 25 м.
Вид битрейта : Переменный
Битрейт : 4394 Кбит/сек
Максимальный битрейт : 8000 Кбит/сек
Ширина : 720 пикселей
Высота : 576 пикселей
Соотношение сторон : 16:9
Частота кадров : 25,000 кадров/сек
Стандарт вещания : PAL
Цветовое пространство : YUV
Субдискретизация насыщенности : 4:2:0
Битовая глубина : 8 бит
Тип развёртки : Чересстрочная
Порядок развёртки : Верхнее поле первое
Метод сжатия : С потерями
Бит/(Пиксели*Кадры) : 0.424
Размер потока : 814 Мбайт (81%)

Аудио #1
Идентификатор : 189 (0xBD)-128 (0x80)
Формат : AC-3
Формат/Информация : Audio Coding 3
Расширение режима : CM (complete main)
Параметр Endianness формата : Big
Режим смешивания : DVD-Video
Продолжительность : 25 м.
Вид битрейта : Постоянный
Битрейт : 448 Кбит/сек
Каналы : 6 каналов
Расположение каналов : Front: L C R, Side: L R, LFE
Частота : 48,0 КГц
Битовая глубина : 16 бит
Метод сжатия : С потерями
Задержка видео : -288 мс.
Размер потока : 83,0 Мбайт (8%)

Аудио #2
Идентификатор : 189 (0xBD)-129 (0x81)
Формат : AC-3
Формат/Информация : Audio Coding 3
Расширение режима : CM (complete main)
Параметр Endianness формата : Big
Режим смешивания : DVD-Video
Продолжительность : 25 м.
Вид битрейта : Постоянный
Битрейт : 448 Кбит/сек
Каналы : 6 каналов
Расположение каналов : Front: L C R, Side: L R, LFE
Частота : 48,0 КГц
Битовая глубина : 16 бит
Метод сжатия : С потерями
Задержка видео : -288 мс.
Размер потока : 83,0 Мбайт (8%)

Меню

Общее
Полное имя : D:torrentПетля.времени-Looper.(2012).DVD5.KinomanVIDEO_TSVTS_02_5.VOB
Формат : MPEG-PS
Размер файла : 164 Мбайт
Продолжительность : 3 м. 18 с.
Режим общего битрейта : Переменный
Общий поток : 6945 Кбит/сек

Видео
Идентификатор : 224 (0xE0)
Формат : MPEG Video
Версия формата : Version 2
Профиль формата : Main@Main
Параметр BVOP формата : Да
Параметр матрицы формата : Выборочная
Параметр GOP формата : M=3, N=15
Продолжительность : 3 м. 18 с.
Вид битрейта : Переменный
Битрейт : 5911 Кбит/сек
Максимальный битрейт : 8000 Кбит/сек
Ширина : 720 пикселей
Высота : 576 пикселей
Соотношение сторон : 16:9
Частота кадров : 25,000 кадров/сек
Стандарт вещания : PAL
Цветовое пространство : YUV
Субдискретизация насыщенности : 4:2:0
Битовая глубина : 8 бит
Тип развёртки : Чересстрочная
Порядок развёртки : Верхнее поле первое
Метод сжатия : С потерями
Бит/(Пиксели*Кадры) : 0.570
Размер потока : 140 Мбайт (85%)

Аудио #1
Идентификатор : 189 (0xBD)-128 (0x80)
Формат : AC-3
Формат/Информация : Audio Coding 3
Расширение режима : CM (complete main)
Параметр Endianness формата : Big
Режим смешивания : DVD-Video
Продолжительность : 3 м. 18 с.
Вид битрейта : Постоянный
Битрейт : 448 Кбит/сек
Каналы : 6 каналов
Расположение каналов : Front: L C R, Side: L R, LFE
Частота : 48,0 КГц
Битовая глубина : 16 бит
Метод сжатия : С потерями
Задержка видео : -272 мс.
Размер потока : 10,6 Мбайт (6%)

Аудио #2
Идентификатор : 189 (0xBD)-129 (0x81)
Формат : AC-3
Формат/Информация : Audio Coding 3
Расширение режима : CM (complete main)
Параметр Endianness формата : Big
Режим смешивания : DVD-Video
Продолжительность : 3 м. 18 с.
Вид битрейта : Постоянный
Битрейт : 448 Кбит/сек
Каналы : 6 каналов
Расположение каналов : Front: L C R, Side: L R, LFE
Частота : 48,0 КГц
Битовая глубина : 16 бит
Метод сжатия : С потерями
Задержка видео : -272 мс.
Размер потока : 10,6 Мбайт (6%)

Меню


Title: Петля.времени-Looper.(2012).DVD5.сторонний ресурс
Size: 4.21 Gb ( 4 412 906,00 KBytes ) - DVD-5
Enabled regions: 1, 2, 3, 4, 5, 6, 7, 8

VTS_01 :
Play Length: 00:01:47+00:00:06
Video: PAL 16:9 (720x576) VBR, Auto Letterboxed
Audio:
English (Dolby AC3, 2 ch)

VTS_02 :
Play Length: 01:53:45
Video: PAL 16:9 (720x576) VBR, Auto Letterboxed
Audio:
English (Dolby AC3, 6 ch)
Russian (Dolby AC3, 6 ch)
Subtitles:
Russian
Latvian
Estonian
Lithuanian
pb.wtf



Скачать Путешествия во времени через торрент https://pic1.kartinco.top/images/111/tx5247np8k.jpg Скачать фильм Путешествия во времени через торрент бесплантно в хорошем качестве Описание: В недалеком будущем, где стали возможны путешествия во времени, некая корпорация убирает нежелательных людей, отправляя их в ... 5 10 1
Info! Золотая раздача, скачанное не засчитывается.
Торрент: Зарегистрирован [2012-11-25 17:51] · скачан: 120 раз
Статус: √ проверено
Размер: 4.21 GB
Как cкачать? Как скачать Путешествия во времени через торрент | UTorrent

% Раздел Тема Автор DL S | L
Порно фильмы без сюжета [ 1.37 GB ] Оргии при путешествии во времени / The Best By Private 162 - Time Travelling Orgies DVDRip Оригинальный] DJASFUL Скачать
1 | 0
Фильмы (WEB-DL 720p, 1080p) [ 3.43 GB ] Часто задаваемые вопросы о путешествиях во времени / Frequently Asked Questions About Time Travel [2009 HDTVRip 720p DVO + VO + Original Eng] -Lexx- Скачать
1 | 0
Фильмы 2012 [ 2.06 GB ] Путешествия во времени [2012 DVDRip DUB ] jump88 Скачать
1 | 0
Фильмы (DVD фильмы) [ 5.33 GB ] Путешествия во времени [2012 DVD9] R5 voovaz Скачать
1 | 0
Фильмы 2012 [ 729 MB ] Путешествия во времени [2012 DVDRip DUB Чистый Звук] JhaWithYou Скачать
1 | 0
Фильмы 2009 [ 1.36 GB ] Часто задаваемые вопросы о путешествиях во времени / Frequently Asked Questions About Time Travel [2009 HDRip] Чупачупсик Скачать
1 | 0
National Geographic [ 750 MB ] Путешествие во времени возможно / Time Travel The Truth [2009 Документальный HDTVRip] 220v0lt Скачать
1 | 0


Последний раз редактировалось: jump88 (2012-11-18 08:07), всего редактировалось 1 раз

28-11-2019 20:33  

Отключить всю рекламу на сайте


18-11-2012 08:01 Путешествия во времени Скачать торрент  

так лицензия или чистый звук?pb.wtf



18-11-2012 18:18 Путешествия во времени Скачать торрент  

бред полный ((((((((((((((((pb.wtf



02-12-2012 18:56 Путешествия во времени Скачать торрент  

Согласен, бред.pb.wtf



    Дорогой пользователь! Огромная просьба, поблагодарите релизера, оцените раздачу и оставьте свои комментарий, если Вы скачали Путешествия во времени через торрент бесплатно! Внесите свою лепту в развитие PiratBit!
    Комментировать посты могут только пользователи прошедшие не сложную регистрацию
    Показать сообщения:    

    Путешествия во времени через торрент
    Скачать бесплатно Путешествия во времени
    Путешествия во времени скачать торрент
    Путешествия во времени смотреть онлайн
    Cкачать фильм Путешествия во времени бесплатно
    Путешествия во времени скачать торрент в хорошем качестве
    Путешествия во времени смотреть онлайн бесплатно в хорошем качестве


    Вы не можете начинать темы
    Вы не можете отвечать на сообщения
    Вы не можете редактировать свои сообщения
    Вы не можете удалять свои сообщения
    Вы не можете голосовать в опросах
    Вы не можете прикреплять файлы к сообщениям
    Вы можете скачивать файлы