2 сезон

iTunes

1 сезон

1

iTunes

iTunes

iTunes

1 сезон

RePack

30

ИГРА 18+

pack

ВАЖНО

!!Акция!!

Alien_RageХит недели

RePack

MK11
pack

Забери бонус

RePack

jed

!!Акция!!

Alien_Rage

RePack

fifa19

RePack

Assassins Creed: Odyssey

RePack

NEED FOR SPEED™ PAYBACK

4 сезон

9 сезон

Бесстыжие 9 сезон

Все сериалы

все сериалы на PB.wtf

RePack

FAR CRY 5
  

Приключения пиратов в Стране Овощей / Jonah: A VeggieTales Movie (Майк Навроцки, Фил Вишер) [2002 г., мультфильм, мюзикл, драма, комедия, приключения, семейный, HDRip, DUB] pb.wtf

Приключения пиратов в Стране Овощей через торрент pb.wtf

Качают: 1 [ 0 KB/s ]
Размер: 745 MB | Добавлен: 7 лет 10 мес. назад | Торрент скачан:87 раз
Скачать  

11-12-2012 09:06 Приключения пиратов в Стране Овощей Скачать торрент  

Приключения пиратов в Стране Овощей / Jonah: A VeggieTales Movie

Год выпуска: 2002
Страна: США
Жанр: мультфильм, мюзикл, драма, комедия, приключения, семейный
Продолжительность: 01:22:44
Перевод: Дублированный


Режиссер: Майк Навроцки, Фил Вишер
Продюссер: Амике Оуенс, Терри Ботвик, Дэн Филипс
Сценарий: Фил Вишер, Майк Навроцки, Тим Ходж


Бюджет: $14 000 000
Премьера в мире: 4 октября 2002





В ролях: : Фил Вишер, Майк Навроцки, Тим Ходж, Лиза Вишер, Дэн Андерсон, Kristin Blegen, Шелби Вишер, Джим Пул, Рон Смит, Сара Катрин Брук

Описание: В сериале про говорящие овощи помидор, огурец и прочие разыгрывают поучительные истории. В «Приключениях пиратов» они тоже участвуют, но скорее как слушатели: перессорившись и попав в аварию, овощи оказываются поздно вечером в каком-то кабаке, где к ним подсаживаются пираты и начинают рассказ про спаржу Иону. Овощной пророк ослушался Господа, не проявив должного сострадания к грешникам из Ниневии, за что и угодил в китово чрево.


Качество: HDRip
Формат: AVI
Видео кодек: XviD
Аудио кодек: MP3
Видео: 656x368, 1 121 Kbps, 23.976 fps
Аудио#1: 128 Kbps, 2 channels, 48.0 KHz




Скриншоты:
General
Complete name : D:Priklucheniya piratov.avi
Format : AVI
Format/Info : Audio Video Interleave
File size : 745 MiB
Duration : 1h 22mn
Overall bit rate : 1 258 Kbps
Writing application : VirtualDubMod 1.5.10.3 | www.virtualdub-fr.org || (build 2550/release)
Writing library : VirtualDubMod build 2550/release

Video
ID : 0
Format : MPEG-4 Visual
Format profile : Advanced Simple@L5
Format settings, BVOP : 1
Format settings, QPel : No
Format settings, GMC : No warppoints
Format settings, Matrix : Custom
Codec ID : XVID
Codec ID/Hint : XviD
Duration : 1h 22mn
Bit rate : 1 121 Kbps
Width : 656 pixels
Height : 368 pixels
Display aspect ratio : 16:9
Frame rate : 23.976 fps
Color space : YUV
Chroma subsampling : 4:2:0
Bit depth : 8 bits
Scan type : Progressive
Compression mode : Lossy
Bits/(Pixel*Frame) : 0.194
Stream size : 663 MiB (89%)
Writing library : XviD 61

Audio
ID : 1
Format : MPEG Audio
Format version : Version 1
Format profile : Layer 3
Codec ID : 55
Codec ID/Hint : MP3
Duration : 1h 22mn
Bit rate mode : Constant
Bit rate : 128 Kbps
Channel(s) : 2 channels
Sampling rate : 48.0 KHz
Compression mode : Lossy
Stream size : 75.8 MiB (10%)
Alignment : Aligned on interleaves
Interleave, duration : 42 ms (1.00 video frame)
Interleave, preload duration : 504 ms
Writing library : LAME3.98r
Encoding settings : -m s -V 4 -q 2 -lowpass 17 -b 128

pb.wtf



Скачать Приключения пиратов в Стране Овощей через торрент http://s020.radikal.ru/i718/1212/5c/0dd222699cf1.jpg Скачать фильм Приключения пиратов в Стране Овощей через торрент бесплантно в хорошем качестве Описание: В сериале про говорящие овощи помидор, огурец и прочие разыгрывают поучительные истории. В «Приключениях пиратов» они тоже ... 5 10 1
Info! Золотая раздача, скачанное не засчитывается.
Торрент: Зарегистрирован [2012-12-11 09:06] · скачан: 87 раз
Статус: √ проверено
Размер: 745 MB
Как cкачать? Как скачать Приключения пиратов в Стране Овощей через торрент | qTorrent

28-11-2019 20:33  

Отключить всю рекламу на сайте

11-12-2012 12:04 Приключения пиратов в Стране Овощей Скачать торрент  

Вот это фильм вот это я понимаю он достоин находиться в шапке трекера с себе подобными!pb.wtf



    Дорогой пользователь! Огромная просьба, поблагодарите релизера, оцените раздачу и оставьте свои комментарий, если Вы скачали Приключения пиратов в Стране Овощей через торрент бесплатно! Внесите свою лепту в развитие PiratBit!
    Комментировать посты могут только пользователи прошедшие не сложную регистрацию
    Показать сообщения:    

    Приключения пиратов в Стране Овощей через торрент
    Скачать бесплатно Приключения пиратов в Стране Овощей
    Приключения пиратов в Стране Овощей скачать торрент
    Приключения пиратов в Стране Овощей смотреть онлайн
    Cкачать фильм Приключения пиратов в Стране Овощей бесплатно
    Приключения пиратов в Стране Овощей скачать торрент в хорошем качестве
    Приключения пиратов в Стране Овощей смотреть онлайн бесплатно в хорошем качестве


    Вы не можете начинать темы
    Вы не можете отвечать на сообщения
    Вы не можете редактировать свои сообщения
    Вы не можете удалять свои сообщения
    Вы не можете голосовать в опросах
    Вы не можете прикреплять файлы к сообщениям
    Вы можете скачивать файлы