1 сезон

1 сезон

iTunes

1

КиноПоиск HD

Кинопоиск HD

iTunes

13

1 сезон

RePack

30

Новинка

ВАЖНО

ИГРА 18+

pack

RePack

MK11
pack

Легкие деньги

RePack

jed

RePack

fifa19

RePack

RDR2

RePack

NEED FOR SPEED™ PAYBACK

4 сезон

9 сезон

Бесстыжие 9 сезон

Все сериалы

все сериалы на PB.wtf

RePack

FAR CRY 5
  
Magnet ссылка

Сквозные ранения / Exit Wounds (Анджей Бартковяк) [2001 г., боевик, триллер, драма, комедия, криминал, HDRip, DUB, лицензия] pb.wtf

Сквозные ранения через торрент pb.wtf

Размер: 1.45 GB | Добавлен: 8 лет 4 мес. назад | Торрент скачан:36 раз
Скачать  

11-12-2012 09:38 Сквозные ранения Скачать торрент  

Сквозные ранения / Exit Wounds

Год выпуска: 2001
Страна: США, Австралия
Жанр: боевик, триллер, драма, комедия, криминал
Продолжительность: 01:39:34
Перевод: Дубляж, Лицензия

Режиссер: Анджей Бартковяк
Продюссер: Дэн Краччиоло, Джоэл Силвер, Брюс Берман
Сценарий: Эд Хоровиц, Ричард Д’Овидио, Джон Вестерманн

Бюджет: $50 000 000
Премьера в мире: 13 марта 2001


Мировой рейтинг IMDB 5.30 (19 989)


В ролях: Стивен Сигал, DMX, Исайя Вашингтон, Энтони Андерсон, Майкл Джей Уайт, Билл Дьюк, Джилл Хеннесси, Том Арнольд, Брюс МакГилл, Давид Вадим
Роли дублировали: Владимир Антоник, Алексей Мясников, Денис Беспалый, Юрий Маляров, Александр Груздев...

Описание: Именем детектива Орина Бойда из Детройта следовало бы назвать улицу. Вместо этого, после того как он днями и ночами охотился за наемными политическими убийцами, его переводят в дорожную полицию. Кто-то хочет убрать Бойда с дороги, но ему стоит прислушаться к совету: «вызывай подкрепление»!

Качество: HDRip
Формат: MKV
Видео кодек: H.264
Аудио кодек: AC3
Видео: 720x 304(2,35:1),25,000fps, AVC MPEG-4 (H.264), ~1898 kbps avg,0.347 bit/pixel
Аудио: 48 kHz, AC3 Dolby Digital, 3/2 (L,C,R,l,r) + LFE ch, ~192 kbps avg
Автор рипа:





Общее
Уникальный идентификатор : 172750641021013110385895394056034981767 (0x81F69030DA81D099B5B2BE013F1A1787)
Полное имя : E:ТоррентыPiratbitSkvoznoe ranenia.mkv
Формат : Matroska
Версия формата : Version 2
Размер файла : 1,45 Гбайт
Продолжительность : 1 ч. 39 м.
Общий поток : 2080 Кбит/сек
Дата кодирования : UTC 2012-12-07 08:15:44
Программа кодирования : mkvmerge v5.6.0 ('Kenya Kane') built on Jun 29 2012 15:01:44
Библиотека кодирования : libebml v1.2.3 + libmatroska v1.3.0

Видео
Идентификатор : 1
Формат : AVC
Формат/Информация : Advanced Video Codec
Профиль формата : High@L4.1
Параметр CABAC формата : Да
Параметр ReFrames формата : 8 кадров
Идентификатор кодека : V_MPEG4/ISO/AVC
Продолжительность : 1 ч. 39 м.
Битрейт : 1898 Кбит/сек
Ширина : 720 пикселей
Высота : 304 пикселя
Соотношение сторон : 2,35:1
Частота кадров : 25,000 кадров/сек
Цветовое пространство : YUV
Субдискретизация насыщенности : 4:2:0
Битовая глубина : 8 бит
Тип развёртки : Прогрессивная
Бит/(Пиксели*Кадры) : 0.347
Размер потока : 1,28 Гбайт (89%)
Библиотека кодирования : x264 core 125 r2200 999b753
Настройки программы : cabac=1 / ref=8 / deblock=1:0:0 / analyse=0x3:0x113 / me=hex / subme=7 / psy=1 / psy_rd=1.00:0.00 / mixed_ref=1 / me_range=16 / chroma_me=1 / trellis=1 / 8x8dct=1 / cqm=0 / deadzone=21,11 / fast_pskip=1 / chroma_qp_offset=-2 / threads=6 / lookahead_threads=1 / sliced_threads=0 / nr=0 / decimate=1 / interlaced=0 / bluray_compat=0 / constrained_intra=0 / bframes=8 / b_pyramid=2 / b_adapt=1 / b_bias=0 / direct=1 / weightb=1 / open_gop=0 / weightp=2 / keyint=250 / keyint_min=25 / scenecut=40 / intra_refresh=0 / rc_lookahead=40 / rc=abr / mbtree=1 / bitrate=1898 / ratetol=1.0 / qcomp=0.60 / qpmin=0 / qpmax=69 / qpstep=4 / ip_ratio=1.40 / aq=1:1.00
Default : Да
Forced : Нет

Аудио
Идентификатор : 2
Формат : AC-3
Формат/Информация : Audio Coding 3
Расширение режима : CM (complete main)
Параметр Endianness формата : Big
Идентификатор кодека : A_AC3
Продолжительность : 1 ч. 39 м.
Вид битрейта : Постоянный
Битрейт : 192 Кбит/сек
Каналы : 6 каналов
Расположение каналов : Front: L C R, Side: L R, LFE
Частота : 48,0 КГц
Битовая глубина : 16 бит
Метод сжатия : С потерями
Размер потока : 137 Мбайт (9%)
Default : Да
Forced : Нет


Сквозные ранения скачать торрент


pb.wtf



Скачать Сквозные ранения через торрент http://i032.radikal.ru/1212/cf/c6b2f1bfd592.png Скачать фильм Сквозные ранения через торрент бесплантно в хорошем качестве Описание: Именем детектива Орина Бойда из Детройта следовало бы назвать улицу. Вместо этого, после того как он днями и ночами охотился за ... 10 10 3
Info! Золотая раздача, скачанное не засчитывается.
Торрент: Зарегистрирован [2012-12-11 09:38] · скачан: 36 раз
Статус: √ проверено
Размер: 1.45 GB
Как cкачать? Как скачать Сквозные ранения через торрент | UTorrent

% Раздел Тема Автор DL S | L
Фильмы [HD 720p, 1080p] (Хороший звук DUB, MVO) [ 5.43 GB ] Сквозные ранения / Exit Wounds [2001 BDRip 1080p] + 2x [MVO] + 3x [AVO] killermax2013 Скачать
4 | 0
Фильмы (Blu-ray, BD-Remux, HDDVD) [ 24.43 GB ] Сквозные ранения / Exit Wounds [2001 BDRemux 1080p] + 2x [MVO] + 3x [AVO] + [VO] killermax2013 Скачать
1 | 0
Фильмы [HD 720p, 1080p] (Хороший звук DUB, MVO) [ 5.25 GB ] Сквозные ранения / Exit Wounds [2001 BDRip 1080p HEVC ] Мичман37 Скачать
1 | 0
Фильмы [HD 720p, 1080p] (Хороший звук DUB, MVO) [ 10.04 GB ] Сквозные ранения / Exit Wounds [2001 BDRip ] Бумер Скачать
1 | 0
Фильмы (WEB-DL 720p, 1080p) [ 7.21 GB ] Сквозные ранения / Exit Wounds [2001 HDTV 1080р ] Бумер Скачать
1 | 0
Фильмы с авторской озвучкой [ 1.62 GB ] Сквозные ранения / Exit Wounds [2001 HDTVRip-AVC Авторский одноголосный дублированный] killermax2013 Скачать
1 | 0

28-11-2019 20:33  

Отключить всю рекламу на сайте

11-12-2012 10:08 Сквозные ранения Скачать торрент  

это был последний фильм с Сигалом достойный внимания, а остальное творчество :cansored: javascript:emoticon(':cansored:')pb.wtf



    Дорогой пользователь! Огромная просьба, поблагодарите релизера, оцените раздачу и оставьте свои комментарий, если Вы скачали Сквозные ранения через торрент бесплатно! Внесите свою лепту в развитие PiratBit!
    Комментировать посты могут только пользователи прошедшие не сложную регистрацию
    Показать сообщения:    

    Сквозные ранения через торрент
    Скачать бесплатно Сквозные ранения
    Сквозные ранения скачать торрент
    Сквозные ранения смотреть онлайн
    Cкачать фильм Сквозные ранения бесплатно
    Сквозные ранения скачать торрент в хорошем качестве
    Сквозные ранения смотреть онлайн бесплатно в хорошем качестве


    Вы не можете начинать темы
    Вы не можете отвечать на сообщения
    Вы не можете редактировать свои сообщения
    Вы не можете удалять свои сообщения
    Вы не можете голосовать в опросах
    Вы не можете прикреплять файлы к сообщениям
    Вы можете скачивать файлы