Мега распродажа FORZA HORIZON 4 ULTIMATE+ВСЕ DLC+ОНЛАЙН всего за 499р. 349 руб. (супер цена). Внимание количество ограничено!!!

Лицензия

30

iTunes

мы

iTunes

1

1 сезон

Чернобыль

1 сезон

Ральф против интернета

MVO

Покемон. Детектив Пикачу

8 сезон

Игра престолов

iTunes

1+1

ИГРА 18+

pack

ВАЖНО

!!Акция!!

Alien_RageХит недели

RePack

Resident Evil 21
pack

RePack

Metro:Exodus

!!Акция!!

Alien_Rage

RePack

fifa19

RePack

Assassins Creed: Odyssey

RePack

NEED FOR SPEED™ PAYBACK

3 сезон

9 сезон

Бесстыжие 9 сезон

Все сериалы

все сериалы на PB.wtf

RePack

FAR CRY 5
Ребята, катастрофически не хватает 2730р. для оплаты серверов за МАЙ (всвязи с блокировками трафик упал в 3 раза), 1-2р., выручайте.
  

Антихрист / Antichrist (Ларс фон Триер) [2009 г., Ужасы, драма, HDRip, MVO, лицензия] pb.wtf

Антихрист через торрент pb.wtf

Размер: 1.46 GB | Добавлен: 6 лет 6 мес. назад | Торрент скачан:445 раз
Скачать  

12-12-2012 19:49 Антихрист Скачать торрент  


Антихрист / Antichrist
Год выпуска: 2009
Страна: Дания, Германия, Франция, Швеция, Италия, Польша
Жанр: Ужасы, драма
Продолжительность: 01:48:50
Перевод: Профессиональный многоголосый, Лицензия

Режиссер: Ларс фон Триер

Бюджет: $11 000 000
Премьера в мире: 18 мая 2009



В ролях: Уиллем Дефо, Шарлотта Генсбур, Сторм Акеке Сальстрем

Описание: Немолодая пара теряет сына — двухлетний мальчик падает из окна, когда родители занимаются любовью. Чувство вины, буквально, сводит с ума мать ребенка, его отец — психотерапевт, пытается помочь жене и увозит ее в старый дом в лесной чаще.
Там герои фильма погружаются в мир странных символов, в их жизнь проникает безумие и насилие. Но даже самые чудовищные страдания мужчины и женщины не в силах притупить их раскаяние и душевную боль.

Качество: HDRip [BDRip 1080p]
Формат: AVI
Видео кодек: XviD
Аудио кодек: AC3
Видео: 720x304 (2.37:1), 23.976 fps, XviD build 64 ~1464 kbps avg, 0.28 bit/pixel
Аудио: 48 kHz, AC3 Dolby Digital, 3/2 (L,C,R,l,r) + LFE ch, ~448 kbps


Автори рипа: Dean24
скриншот  скриншот  
скриншот  скриншот  
скриншот  скриншот  





Общее:
Полное имя: D:Для сайтаRip'santihrist_HDRip.avi
Формат: AVI
Формат/Информация: Audio Video Interleave
Размер файла: 1,46 Гбайт
Продолжительность: 1 ч. 48 м.
Общий поток: 1921 Кбит/сек
Программа кодирования: VirtualDubMod 1.5.10.3 (build 2550/release)
Библиотека кодирования: VirtualDubMod build 2550/release

Видео:
Идентификатор: 0
Формат: MPEG-4 Visual
Профиль формата: Advanced Simple@L5
Параметр BVOP формата: 2
Параметр QPel формата: Нет
Параметр GMC формата: Без точки перехода
Параметр матрицы формата: Default (H.263)
Идентификатор кодека: XVID
Идентификатор кодека/Подсказка: XviD
Продолжительность: 1 ч. 48 м.
Битрейт: 1464 Кбит/сек
Ширина: 720 пикс.
Высота: 304 пикс.
Соотношение сторон: 2,35:1
Частота кадров: 23,976 кадр/сек
Цветовое пространство: YUV
Подвыборка цветности: 4:2:0
Битовая глубина: 8 бит
Тип развёртки: Прогрессивная
Метод сжатия: С потерями
Бит/(Пиксели*Кадры): 0.279
Размер потока: 1,11 Гбайт (76%)
Библиотека кодирования: XviD 64

Аудио:
Идентификатор: 1
Формат: AC-3
Формат/Информация: Audio Coding 3
Расширение режима: CM (complete main)
Идентификатор кодека: 2000
Продолжительность: 1 ч. 48 м.
Вид битрейта: Постоянный
Битрейт: 448 Кбит/сек
Каналы: 6 каналов
Расположение каналов: Front: L C R, Side: L R, LFE
Частота: 48,0 КГц
Битовая глубина: 16 бит
Метод сжатия: С потерями
Размер потока: 349 Мбайт (23%)
Выравнивание: Разделение по промежуткам
Продолжительность промежутка: 42 мс. (1,00 видеокадр)
Время предзагрузки промежутка: 500 ms

pb.wtf



Скачать Антихрист через торрент http://i54.fastpic.ru/big/2012/1212/75/d39846bf978c02b67441de54dd9a3375.jpg Скачать фильм Антихрист через торрент бесплантно в хорошем качестве Описание: Немолодая пара теряет сына — двухлетний мальчик падает из окна, когда родители занимаются любовью. Чувство вины, буквально, ... 8.7 10 6
Info! Золотая раздача, скачанное не засчитывается.
Торрент: Зарегистрирован [2012-12-12 19:49] · скачан: 445 раз
Статус: √ проверено
Размер: 1.46 GB
Как cкачать? Как скачать Антихрист через торрент | qTorrent

% Раздел Тема Автор DL S | L
Видео для КПК и Смартфонов [ 475 MB ] Антихрист / Antichrist 2009 арт-хаус HDRip] [КПК] Ворон Скачать
1 | 0
Фильмы 2009 [ 1.46 GB ] Антихрист / Antichrist [2009 HDRip] Sудья Скачать
1 | 0
Фильмы 2009 [ 1.37 GB ] Антихрист / Antichrist [2009 DVDRip] DEVI Скачать
1 | 0
Фильмы 2009 [ 1.46 GB ] Антихрист / Antichrist [2009 DVDScreener] MVO + original paul08 Скачать
1 | 0


>> Регистрируемся здесь <<






Отзывы и комментарии о схеме читаем и пишем здесь: ---> Отзывы и комментарии о схеме

Новые благодарочки в телеграм довольных пользователей:
скриншот   скриншот   скриншот   скриншот   скриншот

12-12-2012 20:13 Антихрист Скачать торрент  

Бюджет 11 000 000 долларов, сборы 791 867 долларов.pb.wtf



13-12-2012 08:01 Антихрист Скачать торрент  

К ужасам в обычном понимании этого жанра,кино это относится весьма опосредованно.Арт-хаус,в чистом виде,да и что от фон Триера ещё можно ждать?pb.wtf



13-12-2012 12:03 Антихрист Скачать торрент  

Эдмонд68
Я если честно был в шоке уже когда делал скриншоты... Мне и этого хватило - весь фильм я точно не осилюpb.wtf



16-12-2012 18:35 Антихрист Скачать торрент  

Тяжелый фильм. На любителяpb.wtf



16-12-2012 18:39 Антихрист Скачать торрент  

Ну, ребята, это же Ларс Фон Триер... качаю.pb.wtf



23-12-2012 15:56 Антихрист Скачать торрент  

Это "Порнуха"!pb.wtf



20-02-2013 16:59 Антихрист Скачать торрент  

Блин, такая бредятина, очень жалко свое время которое потратил на просмотр этого фильма, с огромным трудом досмотрел до конца. Фильм больше психологический, жанр "ужасы" тут не подходит ни как! Ни кому не хочу навязывать свое мнение, фильм отстой!pb.wtf



24-04-2014 04:43 Антихрист Скачать торрент  

К просмотру обязателен, но необходима некоторая моральная подготовка. Ужасы? Безусловно! Особенно последние кадры. После этого, не побоюсь, гениального фильма захотелось посмотреть всего Триера и я на пути к успеху)pb.wtf



    Дорогой пользователь! Огромная просьба, поблагодарите релизера, оцените раздачу и оставьте свои комментарий, если Вы скачали Антихрист через торрент бесплатно! Внесите свою лепту в развитие PiratBit!
    Комментировать посты могут только пользователи прошедшие не сложную регистрацию
    Показать сообщения:    

    Антихрист через торрент
    Скачать бесплатно Антихрист
    Антихрист скачать торрент
    Антихрист смотреть онлайн
    Cкачать фильм Антихрист бесплатно
    Антихрист скачать торрент в хорошем качестве
    Антихрист смотреть онлайн бесплатно в хорошем качестве


    Вы не можете начинать темы
    Вы не можете отвечать на сообщения
    Вы не можете редактировать свои сообщения
    Вы не можете удалять свои сообщения
    Вы не можете голосовать в опросах
    Вы не можете прикреплять файлы к сообщениям
    Вы можете скачивать файлы