1 сезон

1 сезон

iTunes

1

КиноПоиск HD

Кинопоиск HD

iTunes

13

1 сезон

RePack

30

Ultimate

ВАЖНО

ИГРА 18+

pack

RePack

MK11
pack

Легкие деньги

RePack

jed

RePack

fifa19

RePack

RDR2

RePack

NEED FOR SPEED™ PAYBACK

4 сезон

9 сезон

Бесстыжие 9 сезон

Все сериалы

все сериалы на PB.wtf

RePack

FAR CRY 5
  
Magnet ссылка

Секретарша / Secretary (Стивен Шейнберг) [2001 г., драма, мелодрама, комедия, HDRip, DUB] pb.wtf

Секретарша через торрент pb.wtf

Размер: 1.46 GB | Добавлен: 8 лет 4 мес. назад | Торрент скачан:138 раз
Скачать  

13-12-2012 13:24 Секретарша Скачать торрент  

Секретарша / Secretary

Год выпуска: 2001
Страна: США
Жанр: драма, мелодрама, комедия
Продолжительность: 01:51:07
Перевод: Дубляж

Режиссер: Стивен Шейнберг
Продюссер: Эндрю Фирберг, Эми Хобби, Стивен Шейнберг
Сценарий: Эрин Крессида Уилсон, Мэри Гейтскилл, Стивен Шейнберг

Премьера в мире: 11 января 2002



В ролях: Джеймс Спэйдер, Мэгги Джилленхол, Джереми Дэвис, Лесли Энн Уоррен, Стивен МакХэтти, Патрик Бошо, Джессика Так, Оз Перкинс, Эми Локейн, Мэри Джой

Описание: В родной городок возвращается привлекательная девушка Ли Холловэй. Она страдает небольшими отклонениями в поведении, однако эти странности не мешают Ли устроиться на работу секретаршей к местному чудаковатому юристу мистеру Грэю.
Для начала работа казалась вполне обычной: печатать, оформлять документы, приносить кофе и т. д., пока мистер Грей не заметил, что с грамматикой у девушки не все так хорошо, как хотелось бы. Вот тут-то и открывается дверь в тот самый мир, который Вы так часто себе представляете и начинается все самое интересное!

Качество: HDRip
Формат: MKV
Видео кодек: H.264
Аудио кодек: AC3
Видео: 704x 384 (1,85:1),23,976fps, AVC MPEG-4 (H.264), ~1503 kbps avg,0.232 bit/pixel
Аудио: 48 kHz, AC3 Dolby Digital, 3/2 (L,C,R,l,r) + LFE ch, ~384 kbps avg
Автор рипа:





Общее
Уникальный идентификатор : 249288255553817674915759821424579440196 (0xBB8B2BEEFE929B8CA6A218B87D75EE44)
Полное имя : E:ТоррентыPiratbitSekretarsha.mkv
Формат : Matroska
Версия формата : Version 2
Размер файла : 1,46 Гбайт
Продолжительность : 1 ч. 51 м.
Общий поток : 1886 Кбит/сек
Дата кодирования : UTC 2012-12-13 11:55:35
Программа кодирования : mkvmerge v5.6.0 ('Kenya Kane') built on Jun 29 2012 15:01:44
Библиотека кодирования : libebml v1.2.3 + libmatroska v1.3.0

Видео
Идентификатор : 1
Формат : AVC
Формат/Информация : Advanced Video Codec
Профиль формата : High@L4.1
Параметр CABAC формата : Да
Параметр ReFrames формата : 8 кадров
Идентификатор кодека : V_MPEG4/ISO/AVC
Продолжительность : 1 ч. 51 м.
Битрейт : 1503 Кбит/сек
Ширина : 704 пикселя
Высота : 384 пикселя
Соотношение сторон : 1,85:1
Частота кадров : 23,976 кадра/сек
Цветовое пространство : YUV
Субдискретизация насыщенности : 4:2:0
Битовая глубина : 8 бит
Тип развёртки : Прогрессивная
Бит/(Пиксели*Кадры) : 0.232
Размер потока : 1,14 Гбайт (78%)
Библиотека кодирования : x264 core 125 r2200 999b753
Настройки программы : cabac=1 / ref=8 / deblock=1:0:0 / analyse=0x3:0x113 / me=hex / subme=7 / psy=1 / psy_rd=1.00:0.00 / mixed_ref=1 / me_range=16 / chroma_me=1 / trellis=1 / 8x8dct=1 / cqm=0 / deadzone=21,11 / fast_pskip=1 / chroma_qp_offset=-2 / threads=6 / lookahead_threads=1 / sliced_threads=0 / nr=0 / decimate=1 / interlaced=0 / bluray_compat=0 / constrained_intra=0 / bframes=8 / b_pyramid=2 / b_adapt=1 / b_bias=0 / direct=1 / weightb=1 / open_gop=0 / weightp=2 / keyint=250 / keyint_min=23 / scenecut=40 / intra_refresh=0 / rc_lookahead=40 / rc=abr / mbtree=1 / bitrate=1503 / ratetol=1.0 / qcomp=0.60 / qpmin=0 / qpmax=69 / qpstep=4 / ip_ratio=1.40 / aq=1:1.00
Default : Да
Forced : Нет

Аудио
Идентификатор : 2
Формат : AC-3
Формат/Информация : Audio Coding 3
Расширение режима : CM (complete main)
Параметр Endianness формата : Big
Идентификатор кодека : A_AC3
Продолжительность : 1 ч. 51 м.
Вид битрейта : Постоянный
Битрейт : 384 Кбит/сек
Каналы : 6 каналов
Расположение каналов : Front: L C R, Side: L R, LFE
Частота : 48,0 КГц
Битовая глубина : 16 бит
Метод сжатия : С потерями
Размер потока : 305 Мбайт (20%)
Default : Да
Forced : Нет


Секретарша скачать торрент


pb.wtf



Скачать Секретарша через торрент https://pic.kartinco.top/images/1/ei1ot3ynnf.png Скачать фильм Секретарша через торрент бесплантно в хорошем качестве Описание: В родной городок возвращается привлекательная девушка Ли Холловэй. Она страдает небольшими отклонениями в поведении, однако эти ... 10 10 2
Info! Золотая раздача, скачанное не засчитывается.
Торрент: Зарегистрирован [2012-12-13 13:24] · скачан: 138 раз
Статус: √ проверено
Размер: 1.46 GB
Как cкачать? Как скачать Секретарша через торрент | UTorrent

% Раздел Тема Автор DL S | L
Порно фильмы с сюжетом [ 1.38 GB ] Лиза Грудастая секретарша / Liza Busty Secretary [2019 All SexBig BoobsAnalLesbianFacial DVDRip] Venom Скачать
1 | 0
Гонзо [ 4.79 GB ] Сексуальные Секретарши / Sexy Secretaries [2018 All Sex Anal Oral Gonzo Facial Couples Office WEB-DLRip] Split Scenes sheker187 Скачать
1 | 0
Гонзо [ 1.45 GB ] Шантаж секретарш / Blackmailed Secretaries [2018 Gonzo Big Tits Big Ass Blowjob Facial Mouth Lingerie DVDRip Оригинальный] nn99nn Скачать
1 | 0
Порно фильмы без сюжета [ 1.08 GB ] Симпатичные Секретарши / Private Specials 193: Cute Secretaries [2017 All Sex Anal Oral Gonzo Facial DP WEBRip 360p] Split Scenes sheker187 Скачать
1 | 0
Порно фильмы HD [ 34.56 GB ] Моя Покорная Секретарша / My Submissive Secretary / Cara Secretaire Soumise [2015 Feature All sex Treesome DP Anal WEB-DL 2160p Оригинальный] nn99nn Скачать
1 | 1
Порно фильмы HD [ 28.9 GB ] Секретарша моего отца / My Father''s Secretary [2017 All Sex Big Asses Big Boobs Big Dicks Oral Anal Threesomes Lingerie Office WEB-DL 2160p Оригинальный] nn99nn Скачать
1 | 1
Порно фильмы без сюжета [ 880 MB ] Секретарша моего отца / My Father''s Secretary [2017 All Sex Big Asses Big Boobs Big Dicks Oral Anal Threesomes Lingerie Office DVDRip Оригинальный] nn99nn Скачать
1 | 0

28-11-2019 20:33  

Отключить всю рекламу на сайте

    Дорогой пользователь! Огромная просьба, поблагодарите релизера, оцените раздачу и оставьте свои комментарий, если Вы скачали Секретарша через торрент бесплатно! Внесите свою лепту в развитие PiratBit!
    Комментировать посты могут только пользователи прошедшие не сложную регистрацию
    Показать сообщения:    

    Секретарша через торрент
    Скачать бесплатно Секретарша
    Секретарша скачать торрент
    Секретарша смотреть онлайн
    Cкачать фильм Секретарша бесплатно
    Секретарша скачать торрент в хорошем качестве
    Секретарша смотреть онлайн бесплатно в хорошем качестве


    Вы не можете начинать темы
    Вы не можете отвечать на сообщения
    Вы не можете редактировать свои сообщения
    Вы не можете удалять свои сообщения
    Вы не можете голосовать в опросах
    Вы не можете прикреплять файлы к сообщениям
    Вы можете скачивать файлы