Ссылка на приватное зеркало нашего сайта всего за 1$. Внимание количество ограничено!!!

2 сезон

iTunes

1 сезон

1

iTunes

iTunes

iTunes

1 сезон

RePack

30

ИГРА 18+

pack

ВАЖНО

!!Акция!!

Alien_RageХит недели

RePack

MK11
pack

Забери бонус

RePack

jed

!!Акция!!

Alien_Rage

RePack

fifa19

RePack

Assassins Creed: Odyssey

RePack

NEED FOR SPEED™ PAYBACK

4 сезон

9 сезон

Бесстыжие 9 сезон

Все сериалы

все сериалы на PB.wtf

RePack

FAR CRY 5
  

Из Парижа с любовью / From Paris with Love (Пьер Морель) [2010 г., боевик, триллер, комедия, криминал, HDRip, DUB (Rus) + DUB (Ukr)] pb.wtf

Из Парижа с любовью через торрент pb.wtf

Размер: 1.45 GB | Добавлен: 7 лет 10 мес. назад | Торрент скачан:116 раз
Скачать  

14-12-2012 11:23 Из Парижа с любовью Скачать торрент  

Из Парижа с любовью / From Paris with Love
«Двое агентов. Один город. Нет мерси ».

Год выпуска: 2010
Страна: Франция, США
Жанр: боевик, триллер, комедия, криминал
Продолжительность: 01:32:39
Перевод: Дубляж + Дубляж - Украинский

Режиссер: Пьер Морель
Продюссер: Люк Бессон, Индия Осборн, Вирджиния Силла
Сценарий: Ади Хасак, Люк Бессон

Бюджет: $52 000 000
Премьера в мире: 4 февраля 2010

В ролях: Джон Траволта, Джонатан Рис-Майерс, Касия Смутняк, Ричард Дерден, Йин Бинг, Эмбер Роуз Рева, Эрик Годон, François Bredon, Чемс Дамани, Сами Дарр

Описание: Джеймсу можно позавидовать: должность личного помощника посла США во Франции, красавица-парижанка в качестве подружки, дорогие костюмы и непыльная работенка оперативника ЦРУ. Но мечтает он совсем о другом, о полной приключений жизни настоящего тайного агента, спасающего мир кулаками, выстрелами и едкими репликами. Судьба иронично улыбается Джеймсу. Он получает настоящее боевое задание в придачу с напарником-сорвиголовой Чарли Уэксом. Но вскоре он понимает, что быть супер агентом не так уж и здорово, как он представлял.

Качество: HDRip
Формат: AVI
Видео кодек: XviD
Аудио кодек: AC3
Видео: 720х304, 23,976 fps, 1465 kbps, 0.279 bit/pixel
Аудио#1: 48 kHz, AC3 5.1, 384.00 kbps / Дубляж - Русский
Аудио#2: 48 kHz, AC3 5.1, 384.00 kbps / Дубляж - Украинский
&
Общее
Полное имя : E:Фильмы МFrom Paris with Love (2010) HDRip (Rus. Ukr).avi
Формат : AVI
Формат/Информация : Audio Video Interleave
Размер файла : 1,45 Гбайт
Продолжительность : 1 ч. 32 м.
Общий поток : 2247 Кбит/сек
Программа кодирования : VirtualDubModRus 1.5.10.2 (build 2542/release)
Библиотека кодирования : VirtualDubMod build 2542/release

Видео
Идентификатор : 0
Формат : MPEG-4 Visual
Профиль формата : Advanced Simple@L5
Параметр BVOP формата : 1
Параметр QPel формата : Нет
Параметр GMC формата : Без точки перехода
Параметр матрицы формата : Выборочная
Режим смешивания : Сжатый битовый поток
Идентификатор кодека : XVID
Идентификатор кодека/Подсказка : XviD
Продолжительность : 1 ч. 32 м.
Битрейт : 1465 Кбит/сек
Ширина : 720 пикселей
Высота : 304 пикселя
Соотношение сторон : 2,35:1
Частота кадров : 23,976 кадра/сек
Цветовое пространство : YUV
Субдискретизация насыщенности : 4:2:0
Битовая глубина : 8 бит
Тип развёртки : Прогрессивная
Метод сжатия : С потерями
Бит/(Пиксели*Кадры) : 0.279
Размер потока : 971 Мбайт (65%)
Библиотека кодирования : XviD 65

Аудио #1
Идентификатор : 1
Формат : AC-3
Формат/Информация : Audio Coding 3
Расширение режима : CM (complete main)
Параметр Endianness формата : Big
Идентификатор кодека : 2000
Продолжительность : 1 ч. 32 м.
Вид битрейта : Постоянный
Битрейт : 384 Кбит/сек
Каналы : 6 каналов
Расположение каналов : Front: L C R, Side: L R, LFE
Частота : 48,0 КГц
Битовая глубина : 16 бит
Метод сжатия : С потерями
Размер потока : 254 Мбайт (17%)
Выравнивание : Разделение по промежуткам
Продолжительность промежутка : 42 мс. (1,00 видеокадр)
Время предзагрузки промежутка : 500 мс.
Заголовок : Дубляж - Русский

Аудио #2
Идентификатор : 2
Формат : AC-3
Формат/Информация : Audio Coding 3
Расширение режима : CM (complete main)
Параметр Endianness формата : Big
Идентификатор кодека : 2000
Продолжительность : 1 ч. 32 м.
Вид битрейта : Постоянный
Битрейт : 384 Кбит/сек
Каналы : 6 каналов
Расположение каналов : Front: L C R, Side: L R, LFE
Частота : 48,0 КГц
Битовая глубина : 16 бит
Метод сжатия : С потерями
Размер потока : 254 Мбайт (17%)
Выравнивание : Разделение по промежуткам
Продолжительность промежутка : 42 мс. (1,00 видеокадр)
Время предзагрузки промежутка : 500 мс.
Заголовок : Дубляж - Украинский


Из Парижа с любовью скачать торрент


pb.wtf



Скачать Из Парижа с любовью через торрент http://i52.fastpic.ru/big/2012/1214/e4/b253b254e94f4390d1d745aa9e3b15e4.jpg Скачать фильм Из Парижа с любовью через торрент бесплантно в хорошем качестве Описание: Джеймсу можно позавидовать: должность личного помощника посла США во Франции, красавица-парижанка в качестве подружки, дорогие ... 9.7 10 9
Info! Золотая раздача, скачанное не засчитывается.
Торрент: Зарегистрирован [2012-12-14 11:23] · скачан: 116 раз
Статус: √ проверено
Размер: 1.45 GB
Как cкачать? Как скачать Из Парижа с любовью через торрент | qTorrent

% Раздел Тема Автор DL S | L
Фильмы [HD 720p, 1080p] (Хороший звук DUB, MVO) [ 6.87 GB ] Из Парижа с любовью / From Paris with Love [2009 BDRip-HEVC 1080p] DUB + 3xAVO RealOldGamer Скачать
3 | 0
Фильмы (Blu-ray, BD-Remux, HDDVD) [ 28.54 GB ] Из Парижа с любовью / From Paris with Love [2010 BDRemux 1080p] DUB + AVO + Sub rus eng + original eng Ворон Скачать
1 | 0
Фильмы (HD 720p, 1080p) (48-60 fps) [ 4.45 GB ] Из Парижа с любовью / From Paris with Love [2010 BDRip 720p ] Rus + Ukr + Original Eng slaventi-69 Скачать
1 | 0
Фильмы с авторской озвучкой [ 1.46 GB ] Из Парижа с любовью / From Paris with Love [2010 BDRip Авторский одноголосный] killermax2013 Скачать
1 | 0
Фильмы [HD 720p, 1080p] (Хороший звук DUB, MVO) [ 15.91 GB ] Из Парижа с любовью / From Paris with Love [2010 BDRip DUB ] Зайчина Скачать
1 | 0
Фильмы [HD 720p, 1080p] (Хороший звук DUB, MVO) [ 2.22 GB ] Из Парижа с любовью / From Paris with Love [2009 BDRip ] ACFIORENTINA Скачать
1 | 0
Фильмы 2010 [ 1.46 GB ] Из Парижа с любовью / From Paris with Love [2010 DVDRip-AVC] tyry999 Скачать
1 | 0

28-11-2019 20:33  

Отключить всю рекламу на сайте

    Дорогой пользователь! Огромная просьба, поблагодарите релизера, оцените раздачу и оставьте свои комментарий, если Вы скачали Из Парижа с любовью через торрент бесплатно! Внесите свою лепту в развитие PiratBit!
    Комментировать посты могут только пользователи прошедшие не сложную регистрацию
    Показать сообщения:    

    Из Парижа с любовью через торрент
    Скачать бесплатно Из Парижа с любовью
    Из Парижа с любовью скачать торрент
    Из Парижа с любовью смотреть онлайн
    Cкачать фильм Из Парижа с любовью бесплатно
    Из Парижа с любовью скачать торрент в хорошем качестве
    Из Парижа с любовью смотреть онлайн бесплатно в хорошем качестве


    Вы не можете начинать темы
    Вы не можете отвечать на сообщения
    Вы не можете редактировать свои сообщения
    Вы не можете удалять свои сообщения
    Вы не можете голосовать в опросах
    Вы не можете прикреплять файлы к сообщениям
    Вы можете скачивать файлы