Всегда рабочее зеркало без VPN и Proxy просто перед .vidak.icu напиши любое слово или цифру, Пример http://sn3e.vidak.icu

Лицензия

MVO

1 сезон

1

1 сезон

iTunes

1 сезон

13

1 сезон

Deluxe

pack

Рекомендуем

Repack

30

ВАЖНО

RePack

MK11

RePack

jed

RePack

fifa19

RePack

RDR2

RePack

NEED FOR SPEED™ PAYBACK

Кинопоиск HD

6 сезон

 Острые козырьки 6 сезон

Все сериалы

все сериалы на PB.wtf

RePack

FAR CRY 5
  
Magnet ссылка

Джефф, живущий дома / Jeff, Who Lives at Home (Джей Дюпласс / Jay Duplass, Марк Дюпласс / Mark Duplass) [2011, США, комедия, BDRip] MVO |R5| DVO |OzzTV| Original (eng) Sub (3 х Rus, Ukr, Eng) pb.wtf

Джефф, живущий дома через торрент pb.wtf

Размер: 2.18 GB | Добавлен: 9 лет 8 мес. назад | Торрент скачан:161 раз
Смотреть онлайн Джефф, живущий дома | Скачать    Ребята, помогите собрать деньги на оплату серверов!!!

14-12-2012 16:05 Джефф, живущий дома Скачать торрент  

Джефф, живущий дома / Jeff, Who Lives at Home

Год выпуска: 2011
Страна: США
Жанр: драма, комедия
Продолжительность: 01:23:01
Перевод: Профессиональный (многоголосый закадровый) |R5| + Профессиональный (двухголосый закадровый) |OzzTV|+ Оригинал
Cубтитры:русские (R5),русские (автор - El Brujo), русские (автор - Dr.pro), украинские, английские (*.srt, отдельным файлом)
Режиссер: Джей Дюпласс, Марк Дюпласс
Продюссер: Лайан Халфон, Джейсон Райтман, Расселл Смит
Сценарий: Джей Дюпласс, Марк Дюпласс
Премьера в мире: 14 сентября 2011
Мировой рейтинг IMDB 6.60 (21 937)


В ролях: Джейсон Сигел, Эд Хелмс, Сьюзен Сарандон, Джуди Грир, Рей Дон Чонг, Стив Зиссис, Ивэн Росс, Бенжамин Брант Бикхэм, Ли Нгуйен, Т. Джоэль Смит
Описание:
Картина станет хроникой одного дня из жизни двух братьев — живущего дома лузера и его уравновешенного и властного родственника.
Релиз от:
Автор рипа: Yarmak23
Качество: BDRip |источник: BD-Remux / 1080р|
Формат: AVI
Видео кодек: XviD
Аудио кодек: AC3
Видео: 720x400 (16:9), 23.976 fps, XviD 65 ~2387 kbps avg, 0.346 bit/pixel
Аудио #1: 48 kHz, AC3 Dolby Digital, 3/2 (L,C,R,l,r) + LFE ch, ~448.00 kbps Constant |Многоголосый закадровый, R5|
Аудио #2: 48 kHz, AC3 Dolby Digital, 3/2 (L,C,R,l,r) + LFE ch, ~448.00 kbps Constant |Двухголосый закадровый, OzzTV|
Аудио #3: 48 kHz, AC3 Dolby Digital, 3/2 (L,C,R,l,r) + LFE ch, ~448.00 kbps Constant |Оригинал|



Complete name : Dzheff_zhivuwij_doma_2011_BDRip_2,18_by_Yarmak.avi
Format : AVI
Format/Info : Audio Video Interleave
Format profile : OpenDML
File size : 2.18 GiB
Duration : 1h 23mn
Overall bit rate : 3 754 Kbps
Writing application : VirtualDubMod 1.5.10.2 (build 2540/release)
Writing library : VirtualDubMod build 2540/release
Video
ID : 0
Format : MPEG-4 Visual
Format profile : Advanced [email protected]
Format settings, BVOP : 1
Format settings, QPel : No
Format settings, GMC : No warppoints
Format settings, Matrix : Custom
Codec ID : XVID
Codec ID/Hint : XviD
Duration : 1h 23mn
Bit rate : 2 387 Kbps
Width : 720 pixels
Height : 400 pixels
Display aspect ratio : 16:9
Frame rate : 23.976 fps
Color space : YUV
Chroma subsampling : 4:2:0
Bit depth : 8 bits
Scan type : Progressive
Compression mode : Lossy
Bits/(Pixel*Frame) : 0.346
Stream size : 1.38 GiB (64%)
Writing library : XviD 65
Audio #1
ID : 1
Format : AC-3
Format/Info : Audio Coding 3
Mode extension : CM (complete main)
Format settings, Endianness : Big
Codec ID : 2000
Duration : 1h 23mn
Bit rate mode : Constant
Bit rate : 448 Kbps
Channel(s) : 6 channels
Channel positions : Front: L C R, Side: L R, LFE
Sampling rate : 48.0 KHz
Bit depth : 16 bits
Compression mode : Lossy
Stream size : 266 MiB (12%)
Alignment : Split accross interleaves
Interleave, duration : 42 ms (1.00 video frame)
Interleave, preload duration : 500 ms
Audio #2
ID : 2
Format : AC-3
Format/Info : Audio Coding 3
Mode extension : CM (complete main)
Format settings, Endianness : Big
Codec ID : 2000
Duration : 1h 23mn
Bit rate mode : Constant
Bit rate : 448 Kbps
Channel(s) : 6 channels
Channel positions : Front: L C R, Side: L R, LFE
Sampling rate : 48.0 KHz
Bit depth : 16 bits
Compression mode : Lossy
Stream size : 266 MiB (12%)
Alignment : Split accross interleaves
Interleave, duration : 42 ms (1.00 video frame)
Interleave, preload duration : 500 ms
Audio #3
ID : 3
Format : AC-3
Format/Info : Audio Coding 3
Mode extension : CM (complete main)
Format settings, Endianness : Big
Codec ID : 2000
Duration : 1h 23mn
Bit rate mode : Constant
Bit rate : 448 Kbps
Channel(s) : 6 channels
Channel positions : Front: L C R, Side: L R, LFE
Sampling rate : 48.0 KHz
Bit depth : 16 bits
Compression mode : Lossy
Stream size : 266 MiB (12%)
Alignment : Split accross interleaves
Interleave, duration : 42 ms (1.00 video frame)
Interleave, preload duration : 500 ms
pb.wtf



Скачать Джефф, живущий дома через торрент http://i51.fastpic.ru/big/2012/1214/b2/1987c9238f1233522151144a63440fb2.png Скачать, смотреть онлайн Джефф, живущий дома бесплантно в хорошем качестве Описание: Картина станет хроникой одного дня из жизни двух братьев — живущего дома лузера и его уравновешенного и властного ... 10 10 2
Info! Золотая раздача, скачанное не засчитывается.
Торрент: Зарегистрирован [2012-12-14 16:05] · скачан: 161 раз
Статус: √ проверено
Размер: 2.18 GB
Как cкачать? Как скачать Джефф, живущий дома через торрент | UTorrent

% Раздел Тема Автор DL S | L
Фильмы 2011 [ 1.37 GB ] Джефф живущий дома / Jeff Who Lives at Home [2011 HDRip MVO лицензия] кэп Скачать
1 | 0

28-11-2019 20:33  

Отключить вcю реклaмy на сайте

    Дорогой пользователь! Огромная просьба, поблагодарите релизера, оцените раздачу и оставьте свои комментарий, если Вы скачали Джефф, живущий дома через торрент бесплатно!
    Комментировать посты могут только пользователи прошедшие не сложную регистрацию
    Показать сообщения:    

    Джефф, живущий дома через торрент
    Скачать бесплатно Джефф, живущий дома
    Джефф, живущий дома скачать торрент
    Джефф, живущий дома смотреть онлайн
    Cкачать фильм Джефф, живущий дома бесплатно
    Джефф, живущий дома скачать торрент в хорошем качестве
    Джефф, живущий дома смотреть онлайн бесплатно в хорошем качестве


    Вы не можете начинать темы
    Вы не можете отвечать на сообщения
    Вы не можете редактировать свои сообщения
    Вы не можете удалять свои сообщения
    Вы не можете голосовать в опросах
    Вы не можете прикреплять файлы к сообщениям
    Вы можете скачивать файлы