Ссылка на приватное зеркало всего за 1$. Внимание количество ограничено!!!

iTunes

iTunes

iTunes

1

iTunes

iTunes

iTunes

iTunes

iTunes

30
pack

$ от Little Big

ВАЖНО

!!Акция!!

Alien_RageХит недели

RePack

Resident Evil 21

ИГРА 18+

pack

RePack

jed

!!Акция!!

Alien_Rage

RePack

fifa19

RePack

Assassins Creed: Odyssey

RePack

NEED FOR SPEED™ PAYBACK

4 сезон

9 сезон

Бесстыжие 9 сезон

Все сериалы

все сериалы на PB.wtf

RePack

FAR CRY 5
  

Поймай меня, если сможешь / Catch Me If You Can (Стивен Спилберг / Steven Spielberg) [2002 г., биография, комедия, драма, криминал, HDTVRip720р]DUB,MVO pb.wtf

Поймай меня, если сможешь через торрент pb.wtf

Размер: 7.68 GB | Добавлен: 7 лет 6 мес. назад | Торрент скачан:309 раз
Скачать  

15-12-2012 14:41 Поймай меня, если сможешь Скачать торрент  

Поймай меня, если сможешь / Catch Me If You Can
«Правдивая история о реальном преступнике»



Год выпуска: 2002
Страна: США
Жанр: биография, комедия, драма, криминал
Продолжительность: 02:20:41
Перевод: Профессиональный (полное дублирование) + Многоголосый закадровый.
Русские субтитры: tcnm


Режиссер: Стивен Спилберг


В ролях: Леонардо ДиКаприо, Том Хэнкс, Кристофер Уокен, Мартин Шин, Натали Бэй, Эми Адамс, Джеймс Бролин, Брайан Хау, Фрэнк Джон Хьюз, Стив Истин


Описание: Фрэнк Эбегнейл успел поработать врачом, адвокатом и пилотом на пассажирской авиалинии — и все это до достижения полного совершеннолетия в 21 год. Мастер в обмане и жульничестве, он также обладал искусством подделки документов, что в конечном счете принесло ему миллионы долларов, которые он получил по фальшивым чекам.
Агент ФБР Карл Хэнрэтти отдал бы все, чтобы схватить Фрэнка и привлечь к ответственности за свои деяния, но Фрэнк всегда опережает его на шаг, заставляя продолжать погоню..






Качество видео: HDTVRip 720p
Формат: MKV
Видео кодек: H.264
Аудио кодек: AC3, DTS
Видео: H.264 , 6228 kb/s, 1280 x 720 (16:9), 223,976 fps, 0.282 bits
Аудио 1: Русский AC3 5.1 48kHz 384kbps (Дубляж)
Аудио 2: Русский DTS 5.1 48kHz 768kbps (Многоголосый)
Аудио 3: Английский AC3 5.1 48kHz 448kbps (Оригинал)
Субтитры: Русские и Английские.



|
Общее
Уникальный идентификатор : 233497987365451902171373641968856632203 (0xAFAA139AE2E59F02AC846A2B7D6C8B8B)
Полное имя : F:ФИЛЬМЫ ТОРРЕНТАCatch.Me.If.You.Can.2002.720p.HDTV.x264.2Rus.Eng-dxva.mkv
Формат : Matroska
Версия формата : Version 2
Размер файла : 7,68 Гбайт
Продолжительность : 2 ч. 20 м.
Общий поток : 7812 Кбит/сек
Дата кодирования : UTC 2010-06-22 19:44:11
Программа кодирования : mkvmerge v3.4.0 ('Rapunzel') сборка от May 15 2010 09:38:20
Библиотека кодирования : libebml v0.8.0 + libmatroska v0.9.0

Видео
Идентификатор : 1
Формат : AVC
Формат/Информация : Advanced Video Codec
Профиль формата : High@L4.1
Параметр CABAC формата : Да
Параметр ReFrames формата : 7 кадров
Идентификатор кодека : V_MPEG4/ISO/AVC
Продолжительность : 2 ч. 20 м.
Битрейт : 6228 Кбит/сек
Ширина : 1280 пикселей
Высота : 720 пикселей
Соотношение сторон : 16:9
Частота кадров : 23,976 кадра/сек
Цветовое пространство : YUV
Субдискретизация насыщенности : 4:2:0
Битовая глубина : 8 бит
Тип развёртки : Прогрессивная
Бит/(Пиксели*Кадры) : 0.282
Размер потока : 5,97 Гбайт (78%)
Библиотека кодирования : x264 core 98 r1643 59a9e03
Настройки программы : cabac=1 / ref=8 / deblock=1:-3:-3 / analyse=0x3:0x133 / me=umh / subme=10 / psy=1 / psy_rd=1.00:0.00 / mixed_ref=1 / me_range=24 / chroma_me=1 / trellis=2 / 8x8dct=1 / cqm=0 / deadzone=21,11 / fast_pskip=0 / chroma_qp_offset=-2 / threads=6 / sliced_threads=0 / nr=0 / decimate=1 / interlaced=0 / constrained_intra=0 / bframes=5 / b_pyramid=1 / b_adapt=2 / b_bias=0 / direct=3 / weightb=1 / weightp=2 / keyint=250 / keyint_min=25 / scenecut=40 / intra_refresh=0 / rc_lookahead=60 / rc=2pass / mbtree=1 / bitrate=6228 / ratetol=1.0 / qcomp=0.80 / qpmin=10 / qpmax=51 / qpstep=4 / cplxblur=20.0 / qblur=0.5 / vbv_maxrate=50000 / vbv_bufsize=50000 / ip_ratio=1.40 / aq=1:0.80 / nal_hrd=none
Язык : English

Аудио #1
Идентификатор : 2
Формат : AC-3
Формат/Информация : Audio Coding 3
Расширение режима : CM (complete main)
Идентификатор кодека : A_AC3
Продолжительность : 2 ч. 20 м.
Вид битрейта : Постоянный
Битрейт : 384 Кбит/сек
Каналы : 6 каналов
Расположение каналов : Front: L C R, Side: L R, LFE
Частота : 48,0 КГц
Битовая глубина : 16 бит
Метод сжатия : С потерями
Задержка видео : 10 мс.
Размер потока : 386 Мбайт (5%)
Заголовок : AC3 5.1 384kbps (Дубляж)
Язык : Russian

Аудио #2
Идентификатор : 3
Формат : DTS
Формат/Информация : Digital Theater Systems
Идентификатор кодека : A_DTS
Продолжительность : 2 ч. 20 м.
Вид битрейта : Постоянный
Битрейт : 755 Кбит/сек
Каналы : 6 каналов
Расположение каналов : Front: L C R, Side: L R, LFE
Частота : 48,0 КГц
Битовая глубина : 24 бит
Метод сжатия : С потерями
Задержка видео : 3 мс.
Размер потока : 759 Мбайт (10%)
Заголовок : DTS 5.1 768kbps (Многоголосый закадровый)
Язык : Russian

Аудио #3
Идентификатор : 4
Формат : AC-3
Формат/Информация : Audio Coding 3
Расширение режима : CM (complete main)
Идентификатор кодека : A_AC3
Продолжительность : 2 ч. 20 м.
Вид битрейта : Постоянный
Битрейт : 448 Кбит/сек
Каналы : 6 каналов
Расположение каналов : Front: L C R, Side: L R, LFE
Частота : 48,0 КГц
Битовая глубина : 16 бит
Метод сжатия : С потерями
Размер потока : 451 Мбайт (6%)
Заголовок : AC3 5.1 448kbps (Оригинал)
Язык : English

Текст #1
Идентификатор : 5
Формат : UTF-8
Идентификатор кодека : S_TEXT/UTF8
Идентификатор кодека/Информация : UTF-8 Plain Text
Язык : Russian

Текст #2
Идентификатор : 6
Формат : UTF-8
Идентификатор кодека : S_TEXT/UTF8
Идентификатор кодека/Информация : UTF-8 Plain Text
Язык : English

Меню
00:00:00.000 : en:00:00:00.000
00:04:42.734 : en:00:04:42.734
00:10:58.734 : en:00:10:58.734
00:18:33.568 : en:00:18:33.568
00:25:54.235 : en:00:25:54.235
00:28:56.069 : en:00:28:56.069
00:33:56.836 : en:00:33:56.836
00:38:34.236 : en:00:38:34.236
00:42:06.736 : en:00:42:06.736
00:49:02.403 : en:00:49:02.403
00:56:50.903 : en:00:56:50.903
01:03:37.903 : en:01:03:37.903
01:10:00.970 : en:01:10:00.970
01:22:21.070 : en:01:22:21.070
01:32:03.904 : en:01:32:03.904
01:38:19.238 : en:01:38:19.238
01:43:25.738 : en:01:43:25.738
01:49:42.572 : en:01:49:42.572
01:57:53.072 : en:01:57:53.072
02:03:53.239 : en:02:03:53.239
02:12:24.406 : en:02:12:24.406
02:15:49.506 : en:02:15:49.506
02:20:34.340 : en:02:20:34.340
скриншот   скриншот   скриншот   скриншот   скриншот   скриншот   скриншот   скриншот  
pb.wtf



Скачать Поймай меня, если сможешь через торрент http://s002.youpic.su/pictures/1323723600/b07870cc282d3ce0c052fc108aab09cd.png Скачать фильм Поймай меня, если сможешь через торрент бесплантно в хорошем качестве Описание: Фрэнк Эбегнейл успел поработать врачом, адвокатом и пилотом на пассажирской авиалинии — и все это до достижения полного ... 9.3 10 13
Info! Золотая раздача, скачанное не засчитывается.
Торрент: Зарегистрирован [2012-12-15 14:41] · скачан: 309 раз
Статус: √ проверено
Размер: 7.68 GB
Как cкачать? Как скачать Поймай меня, если сможешь через торрент | qTorrent

28-11-2019 20:33  

Отключить всю рекламу на сайте

15-12-2012 15:02 Поймай меня, если сможешь Скачать торрент  

Шикарнейший фильм )pb.wtf



15-12-2012 17:33 Поймай меня, если сможешь Скачать торрент  

Подтверждаю! Кино отличное!pb.wtf



    Дорогой пользователь! Огромная просьба, поблагодарите релизера, оцените раздачу и оставьте свои комментарий, если Вы скачали Поймай меня, если сможешь через торрент бесплатно! Внесите свою лепту в развитие PiratBit!
    Комментировать посты могут только пользователи прошедшие не сложную регистрацию
    Показать сообщения:    

    Поймай меня, если сможешь через торрент
    Скачать бесплатно Поймай меня, если сможешь
    Поймай меня, если сможешь скачать торрент
    Поймай меня, если сможешь смотреть онлайн
    Cкачать фильм Поймай меня, если сможешь бесплатно
    Поймай меня, если сможешь скачать торрент в хорошем качестве
    Поймай меня, если сможешь смотреть онлайн бесплатно в хорошем качестве


    Вы не можете начинать темы
    Вы не можете отвечать на сообщения
    Вы не можете редактировать свои сообщения
    Вы не можете удалять свои сообщения
    Вы не можете голосовать в опросах
    Вы не можете прикреплять файлы к сообщениям
    Вы можете скачивать файлы