Всегда рабочее зеркало без VPN и Proxy просто перед .vidak.icu напиши любое слово или цифру, Пример http://k1or.vidak.icu

MVO

2 сезон

1 сезон

1

1 сезон

iTunes

2 сезон

13

1 сезон

Deluxe

pack

Рекомендуем

Пиратка

30

ВАЖНО

RePack

MK11

RePack

jed

RePack

fifa19

RePack

RDR2

RePack

NEED FOR SPEED™ PAYBACK

Кинопоиск HD

6 сезон

 Острые козырьки 6 сезон

Все сериалы

все сериалы на PB.wtf

RePack

FAR CRY 5

Anonymous, нам критически не хватает 5601 руб. на оплату серверов и переферии за Апрель, помоги нам пожалуйста, вся надежда только на тебя. В благодарность мы отключим тебе всю рекламу на сайте!

×
  
Magnet ссылка

Отец невесты / Father of the Bride (Чарльз Шайер) [1991 г., Комедия, семейный, HDRip, MVO, лицензия] pb.wtf

Отец невесты через торрент pb.wtf

Размер: 1.46 GB | Добавлен: 9 лет 5 мес. назад | Торрент скачан:261 раз
Смотреть онлайн Отец невесты | Скачать    Ребята, помогите собрать деньги на оплату серверов!!!

15-12-2012 19:03 Отец невесты Скачать торрент  


Отец невесты / Father of the Bride
Год выпуска: 1991
Страна: США
Жанр: Комедия, семейный
Продолжительность: 01:45:13
Перевод: Профессиональный многоголосый, Лицензия

Режиссер: Чарльз Шайер

Премьера в мире: 20 декабря 1991



В ролях: Стив Мартин, Дайан Китон, Кимберли Уильямс-Пэйсли, Киран Калкин, Джордж Ньюберн, Мартин Шорт, Б.Д. Вонг, Питер Майкл Гец, Кейт Макгрегор-Стюарт, Кармен Хейярд

Описание: Для дочери предстоящая свадьба — самое торжественное и волнующее событие в жизни. Для ее любящего отца — сумасшедший дом. Во-первых, он расстается со своим обожаемым ребенком. Во-вторых, с немалой суммой денег.
В-третьих, ему приходится терпеть родственников со стороны жениха. От этого можно просто потерять рассудок. На свадьбе все были счастливы… кроме отца невесты.

Качество: HDRip [BDRip 1080p]
Формат: AVI
Видео кодек: XviD
Аудио кодек: AC3
Видео: 704x384 (1.83:1), 23.976 fps, XviD build 64 ~1528 kbps avg, 0.23 bit/pixel
Аудио: 48 kHz, AC3 Dolby Digital, 3/2 (L,C,R,l,r) + LFE ch, ~448 kbps


Автор рипа: Dean24
скриншот  скриншот  
скриншот  скриншот  
скриншот  скриншот  





Общее:
Полное имя: D:Для сайтаRip'sotets_nevesty_HDRip.avi
Формат: AVI
Формат/Информация: Audio Video Interleave
Размер файла: 1,46 Гбайт
Продолжительность: 1 ч. 45 м.
Общий поток: 1986 Кбит/сек
Программа кодирования: VirtualDubMod 1.5.10.3 (build 2550/release)
Библиотека кодирования: VirtualDubMod build 2550/release

Видео:
Идентификатор: 0
Формат: MPEG-4 Visual
Профиль формата: Advanced Simple@L5
Параметр BVOP формата: 2
Параметр QPel формата: Нет
Параметр GMC формата: Без точки перехода
Параметр матрицы формата: Default (H.263)
Идентификатор кодека: XVID
Идентификатор кодека/Подсказка: XviD
Продолжительность: 1 ч. 45 м.
Битрейт: 1529 Кбит/сек
Ширина: 704 пикс.
Высота: 384 пикс.
Соотношение сторон: 16:9
Частота кадров: 23,976 кадр/сек
Цветовое пространство: YUV
Подвыборка цветности: 4:2:0
Битовая глубина: 8 бит
Тип развёртки: Прогрессивная
Метод сжатия: С потерями
Бит/(Пиксели*Кадры): 0.236
Размер потока: 1,12 Гбайт (77%)
Библиотека кодирования: XviD 64

Аудио:
Идентификатор: 1
Формат: AC-3
Формат/Информация: Audio Coding 3
Расширение режима: CM (complete main)
Идентификатор кодека: 2000
Продолжительность: 1 ч. 45 м.
Вид битрейта: Постоянный
Битрейт: 448 Кбит/сек
Каналы: 6 каналов
Расположение каналов: Front: L C R, Side: L R, LFE
Частота: 48,0 КГц
Битовая глубина: 16 бит
Метод сжатия: С потерями
Размер потока: 337 Мбайт (23%)
Выравнивание: Разделение по промежуткам
Продолжительность промежутка: 42 мс. (1,00 видеокадр)
Время предзагрузки промежутка: 500 ms

pb.wtf



Скачать Отец невесты через торрент http://i53.fastpic.ru/big/2012/1215/12/10bddb5900140d6ffdbe4049d4a42312.jpg Скачать, смотреть онлайн Отец невесты бесплантно в хорошем качестве Описание: Для дочери предстоящая свадьба — самое торжественное и волнующее событие в жизни. Для ее любящего отца — сумасшедший дом. ... 10 10 2
Info! Золотая раздача, скачанное не засчитывается.
Торрент: Зарегистрирован [2012-12-15 19:03] · скачан: 261 раз
Статус: √ проверено
Размер: 1.46 GB
Как cкачать? Как скачать Отец невесты через торрент | UTorrent

% Раздел Тема Автор DL S | L
Фильмы с авторской озвучкой [ 2.07 GB ] Отец невесты / Father of the Bride [1991 BDRip] 3x [AVO] killermax2013 Скачать
1 | 0
Фильмы [HD 720p, 1080p] (Хороший звук DUB, MVO) [ 15.27 GB ] Отец невесты 2 / Father of the Bride Part II [1995 BDRip 1080p by msltel] 3 x MVO AVO VO msltel Скачать
1 | 0
Фильмы [HD 720p, 1080p] (Хороший звук DUB, MVO) [ 5.59 GB ] Отец невесты 2 / Father of the Bride Part II [1995 BDRip 720p by msltel] 3 x MVO AVO VO msltel Скачать
1 | 0
Фильмы до 2000 г. [ 1.46 GB ] Отец невесты 2 / Father of the Bride Part II [1995 HDRip MVO лицензия] Dean24 Скачать
1 | 0

28-11-2019 20:33  

Отключить всю рекламу на сайте

16-12-2012 00:13 Отец невесты Скачать торрент  

Классный фильм! Иногда аж до слёз смеялся
pb.wtf



    Дорогой пользователь! Огромная просьба, поблагодарите релизера, оцените раздачу и оставьте свои комментарий, если Вы скачали Отец невесты через торрент бесплатно!
    Комментировать посты могут только пользователи прошедшие не сложную регистрацию
    Показать сообщения:    

    Отец невесты через торрент
    Скачать бесплатно Отец невесты
    Отец невесты скачать торрент
    Отец невесты смотреть онлайн
    Cкачать фильм Отец невесты бесплатно
    Отец невесты скачать торрент в хорошем качестве
    Отец невесты смотреть онлайн бесплатно в хорошем качестве


    Вы не можете начинать темы
    Вы не можете отвечать на сообщения
    Вы не можете редактировать свои сообщения
    Вы не можете удалять свои сообщения
    Вы не можете голосовать в опросах
    Вы не можете прикреплять файлы к сообщениям
    Вы можете скачивать файлы