1 сезон

3 сезон

iTunes

1

iTunes

MVO

iTunes

13

1 сезон

RePack

30

Deluxe

pack

Лицензия

ВАЖНО

ИГРА 18+

pack

RePack

MK11

RePack

jed

RePack

fifa19

RePack

RDR2

RePack

NEED FOR SPEED™ PAYBACK

4 сезон

9 сезон

Бесстыжие 9 сезон

Все сериалы

все сериалы на PB.wtf

RePack

FAR CRY 5

Anonymous, доброе утро, мы катастрофически не успеваем собрать деньги на оплату серверов, помогите нам пожалуйста 5,10,15р., для нас важна любая помощь . В качестве благодарности мы отключим Вам всю рекламу на сайте (укажите свой ник в строку Ваше имя)!

×
  
Magnet ссылка

Свадьба (Дэрил Вейн / Daryl Wein) [2012, комедия, DVD5] R5 pb.wtf

Свадьба через торрент pb.wtf

Размер: 3.81 GB | Добавлен: 8 лет 7 мес. назад | Торрент скачан:42 раза
Скачать  

20-11-2012 20:37 Свадьба Скачать торрент  


Давай, до свидания! / Lola Versus
«Против секса, любви и всего мира»
Страна: США
Студия: Groundswell Productions
Жанр: комедия
Год выпуска: 2012
Мировая премьера: 24 апреля 2012
Российская премьера: 20 сентября 2012
Дата выхода DVD: 15 ноября 2012
Продолжительность: 01:23:20
Перевод: Профессиональный (многоголосый закадровый) [Лицензия]
Cубтитры: нет
Оригинальная аудиодорожка: нет
Режиссер: Дэрил Вейн / Daryl Wein
В ролях: Грета Гервиг, Юэль Киннаман, Зои Листер Джонс, Хамиш Линклэйтер, Билл Пуллман, Дебра Уингер, Мария Дицциа, Джонатан Сейл, Эбон Мосс-Бакрак, Адриан Ленокс
Описание: Очаровательная писательница Лола счастлива с женихом Люком. Свадьба — совершенно естественный следующий шаг в их длительных отношениях. Во всяком случае, так кажется невесте. А у Люка совершенно иное мнение на сей счет, и он решился озвучить его накануне свадьбы. Теперь, девушка разочарована в любви, в сексе, в самой жизни! Но за внешностью заплаканной неудачницы скрывается «стойкий оловянный солдатик», который всем еще покажет «кузькину мать».
Бонусы: нет

Релиз группы:
Качество: DVD5 R5
Формат: DVD-Video
Видео кодек: MPEG2
Аудио кодек: AC3
Видео: PAL 16:9 (720x576(0.594)) MPEG Video, 25,000 кадр/сек, 6159 Кбит/сек
Аудио: Russian (Dolby AC3, 6 ch) 384 Кбит/сек, 48,0 КГц



Title: Davaj.do.svidanija.2012.DVD5
Size: 3.81 Gb ( 3 999 300,00 KBytes ) - DVD-5
Enabled regions: 1, 2, 3, 4, 5, 6, 7, 8

VTS_01 :
Play Length: 01:23:20
Video: PAL 16:9 (720x576) VBR, Auto Letterboxed
Audio:
Russian (Dolby AC3, 6 ch)

VTS_02 :
Play Length: 00:00:08
Video: PAL 4:3 (720x576) VBR

VTS_03 :
Play Length: 00:00:21
Video: PAL 16:9 (720x576) VBR, Auto Letterboxed
Audio:
English (Dolby AC3, 2 ch)

VTS_04 :
Play Length: 00:00:15
Video: PAL 16:9 (720x576) VBR, Auto Letterboxed
Audio:
English (Dolby AC3, 2 ch)

* Menus Information *

VIDEO_TS Menu
Video:
NTSC 4:3 (720x480) VBR
Auto Pan&Scan, Auto Letterboxed
Russian Language Unit :
Title Menu

VTS_01 Menu
Video:
PAL 16:9 (720x576) VBR
Auto Letterboxed
Audio:
Not specified (Dolby AC3, 2 ch)
Russian Language Unit :
Root Menu
Chapter (PTT) Menu

VTS_02 Menu
Video:
NTSC 4:3 (720x480) VBR
Auto Pan&Scan, Auto Letterboxed
Language Unit :
Chapter (PTT) Menu

VTS_03 Menu
Video:
NTSC 4:3 (720x480) VBR
Auto Pan&Scan, Auto Letterboxed
Language Unit :
Chapter (PTT) Menu

VTS_04 Menu
Video:
NTSC 4:3 (720x480) VBR
Auto Pan&Scan, Auto Letterboxed
Language Unit :
Chapter (PTT) Menu
Общее
Полное имя : J:Новинки 2012Davaj.do.svidanija.2012.DVD5VIDEO_TSVTS_01_1.VOB
Формат : MPEG-PS
Размер файла : 1024 Мбайт
Продолжительность : 21 м.
Режим общего битрейта : Переменный
Общий поток : 6676 Кбит/сек

Видео
Идентификатор : 224 (0xE0)
Формат : MPEG Video
Версия формата : Version 2
Профиль формата : Main@Main
Параметр BVOP формата : Да
Параметр матрицы формата : Выборочная
Параметр GOP формата : Variable
Продолжительность : 21 м.
Вид битрейта : Переменный
Битрейт : 6159 Кбит/сек
Максимальный битрейт : 8000 Кбит/сек
Ширина : 720 пикселей
Высота : 576 пикселей
Соотношение сторон : 16:9
Частота кадров : 25,000 кадров/сек
Стандарт вещания : PAL
Цветовое пространство : YUV
Субдискретизация насыщенности : 4:2:0
Битовая глубина : 8 бит
Тип развёртки : Чересстрочная
Порядок развёртки : Верхнее поле первое
Метод сжатия : С потерями
Бит/(Пиксели*Кадры) : 0.594
Размер потока : 945 Мбайт (92%)

Аудио
Идентификатор : 189 (0xBD)-128 (0x80)
Формат : AC-3
Формат/Информация : Audio Coding 3
Расширение режима : CM (complete main)
Параметр Endianness формата : Big
Режим смешивания : DVD-Video
Продолжительность : 21 м.
Вид битрейта : Постоянный
Битрейт : 384 Кбит/сек
Каналы : 6 каналов
Расположение каналов : Front: L C R, Side: L R, LFE
Частота : 48,0 КГц
Битовая глубина : 16 бит
Метод сжатия : С потерями
Размер потока : 58,9 Мбайт (6%)










pb.wtf



Скачать Свадьба через торрент http://i48.fastpic.ru/big/2012/1120/9d/386c764fef5ab772f111105707dd5f9d.jpg Скачать фильм Свадьба через торрент бесплантно в хорошем качестве Описание: Очаровательная писательница Лола счастлива с женихом Люком. Свадьба — совершенно естественный следующий шаг в их длительных ... 5 10 1
Info! Золотая раздача, скачанное не засчитывается.
Торрент: Зарегистрирован [2012-12-10 19:33] · скачан: 42 раз
Статус: √ проверено
Размер: 3.81 GB
Как cкачать? Как скачать Свадьба через торрент | UTorrent

% Раздел Тема Автор DL S | L
R.G. Resident & PiratVoice - Фильмы, Видео [ 2.17 GB ] Моя большая греческая свадьба 2 / My Big Fat Greek Wedding 2 [2016 BDRip-AVC] - R.G.Resident schultz Скачать
1 | 0
Фильмы 2014 [DVDrip, WEB-DLRip, HDrip] [ 1.42 GB ] Безумная свадьба / Qu'est-ce qu'on a fait au Bon Dieu? [2014 HDRip-AVC] ] От R.G. PiratFilms White Smoke Скачать
1 | 0
Наши фильмы (DVD фильмы) [ 4.04 GB ] Разрешите тебя поцеловать... на свадьбе [2013 DVD5] R5 voovaz Скачать
1 | 0
Фильмы (DVD фильмы) [ 5.06 GB ] Свадьба / Ceremony [2010 DVD9] R5 voovaz Скачать
1 | 0
Фильмы (DVD фильмы) [ 4.26 GB ] Сначала любовь потом свадьба / Love Wedding Marriage [2011 DVD5] R5 voovaz Скачать
1 | 0
Наши фильмы (DVD фильмы) [ 4.84 GB ] Свадьба по обмену / Свадьба по обмену [2011 DVD9] R5 voovaz Скачать
1 | 0
Фильмы (DVD фильмы) [ 6.15 GB ] Испытание свадьбой / Jumping the Broom [2011 DVD9] R5 «Columbia/Sony» voovaz Скачать
1 | 0

28-11-2019 20:33  

Отключить всю рекламу на сайте

20-11-2012 21:15 Свадьба Скачать торрент  

ахах опять название с мема взяли.россия бл*pb.wtf



21-11-2012 04:56 Свадьба Скачать торрент  

Перевод мне кажется вообще не в тему)pb.wtf



21-11-2012 08:03 Свадьба Скачать торрент  

SnakeD3 писал(а):

ахах опять название с мема взяли.россия бл*

и хуже всего, что это прокатчики сделали. здравомыслящие (хоть чуть-чуть) уже не пойдут в кино смотреть фильм с тупым названием, но прокатчики считают иначе - типа "прикольно же - всех зацепит"pb.wtf



21-11-2012 08:55 Свадьба Скачать торрент  

фильм - комедия или сопливая фигня?pb.wtf



    Дорогой пользователь! Огромная просьба, поблагодарите релизера, оцените раздачу и оставьте свои комментарий, если Вы скачали Свадьба через торрент бесплатно! Внесите свою лепту в развитие PiratBit!
    Комментировать посты могут только пользователи прошедшие не сложную регистрацию
    Показать сообщения:    

    Свадьба через торрент
    Скачать бесплатно Свадьба
    Свадьба скачать торрент
    Свадьба смотреть онлайн
    Cкачать фильм Свадьба бесплатно
    Свадьба скачать торрент в хорошем качестве
    Свадьба смотреть онлайн бесплатно в хорошем качестве


    Вы не можете начинать темы
    Вы не можете отвечать на сообщения
    Вы не можете редактировать свои сообщения
    Вы не можете удалять свои сообщения
    Вы не можете голосовать в опросах
    Вы не можете прикреплять файлы к сообщениям
    Вы можете скачивать файлы