Ссылка на приватное зеркало нашего сайта всего за 1$. Внимание количество ограничено!!!

2 сезон

iTunes

1 сезон

1

iTunes

iTunes

iTunes

1 сезон

RePack

30

ИГРА 18+

pack

ВАЖНО

!!Акция!!

Alien_RageХит недели

RePack

MK11
pack

Забери бонус

RePack

jed

!!Акция!!

Alien_Rage

RePack

fifa19

RePack

Assassins Creed: Odyssey

RePack

NEED FOR SPEED™ PAYBACK

4 сезон

9 сезон

Бесстыжие 9 сезон

Все сериалы

все сериалы на PB.wtf

RePack

FAR CRY 5
  

Синдром дракона / Серии: 1-12 из 12 (Николай Хомерики) [2012, триллер, детектив, 2xDVD9] R5 pb.wtf

Синдром дракона через торрент pb.wtf

Размер: 14.97 GB | Добавлен: 7 лет 10 мес. назад | Торрент скачан:158 раз
Скачать  

15-12-2012 20:04 Синдром дракона Скачать торрент  


Синдром дракона
Страна: Россия, Украина
Студия: RUmedia, ДАНИАН-ФИЛЬМ, АВРОРА
Жанр: триллер, детектив
Год выпуска: 2012
Мировая премьера: 14 октября 2012
Российская премьера: 14 октября 2012
Дата выхода DVD: 13 декабря 2012
Продолжительность: 620 мин.
Перевод: Оригинал [Лицензия]
Cубтитры: нет
Оригинальная аудиодорожка: русский
Режиссер: Николай Хомерики
В ролях: Дмитрий Муляр, Андрей Мерзликин, Лев Борисов, Екатерина Климова, Леонид Бичевин, Кристина Асмус, Карина Андоленко, Алексей Гуськов, Юрий Цурило, Алексей Серебряков...
Описание: Сюжет фильма основан на реальных фактах, связанных с обнаружением в 1993 году в небольшом украинском городе Кировограде огромной коллекции древностей, стоимостью около миллиарда долларов, принадлежавшей обычному электрику Александру Ильину, а также на материалах расследований, гипотезах и домыслах, появившихся по этому поводу за пятнадцать лет.
2008 год. Одесса. Таможенники по анонимному звонку задерживают человека, в багаже которого обнаруживают редчайшую книгу — никому не известный экземпляр «Морского устава» Петра Первого. ФСБ начинает расследование, которое сопровождается рядом таинственных и необъяснимых смертей.
1953 год. Группа высокопоставленных чинов армии, партии и спецслужб решает в смутное для страны время, собрать все награбленные в ходе «официальных репрессий» и вывезенные из побежденной Германии сокровища в одном тихом месте. Хранителями бесценной коллекции становятся молодой разведчик Терехов и освобожденный из тюрьмы коллекционер Авдеев.

Бонусы: нет

Релиз группы:
Качество: 2xDVD9 R5
Формат: DVD-Video
Видео кодек: MPEG2
Аудио кодек: AC3
Видео: PAL 16:9 (720x576(0.283)) MPEG Video, 25,000 кадр/сек, 2930 Кбит/сек
Аудио: Russian (Dolby AC3, 2 ch) 192 Кбит/сек, 48,0 КГц



Title: DVD1
Size: 7.44 Gb ( 7 803 750,00 KBytes ) - DVD-9
Enabled regions: 1, 2, 3, 4, 5, 6, 7, 8

VTS_01 :
Play Length: 00:00:16+05:23:55
Video: PAL 16:9 (720x576) VBR, Auto Letterboxed
Audio:
Russian (Dolby AC3, 2 ch)

* Menus Information *

VIDEO_TS Menu
Video:
NTSC 4:3 (720x480) VBR
Auto Pan&Scan, Auto Letterboxed
Russian Language Unit :
Title Menu

VTS_01 Menu
Video:
PAL 16:9 (720x576) VBR
Auto Letterboxed
Audio:
Not specified (Dolby AC3, 2 ch)
Russian Language Unit :
Root Menu
Chapter (PTT) Menu
Title: DVD2
Size: 7.53 Gb ( 7 898 512,00 KBytes ) - DVD-9
Enabled regions: 1, 2, 3, 4, 5, 6, 7, 8

VTS_01 :
Play Length: 00:00:16+05:49:33
Video: PAL 16:9 (720x576) VBR, Auto Letterboxed
Audio:
Russian (Dolby AC3, 2 ch)

* Menus Information *

VIDEO_TS Menu
Video:
NTSC 4:3 (720x480) VBR
Auto Pan&Scan, Auto Letterboxed
Russian Language Unit :
Title Menu

VTS_01 Menu
Video:
PAL 16:9 (720x576) VBR
Auto Letterboxed
Audio:
Not specified (Dolby AC3, 2 ch)
Russian Language Unit :
Root Menu
Chapter (PTT) Menu
Общее
Полное имя : J:Новинки 2012Sindrom.drakona.2012.2xDVD9DVD1VIDEO_TSVTS_01_6.VOB
Формат : MPEG-PS
Размер файла : 1024 Мбайт
Продолжительность : 44 м.
Режим общего битрейта : Переменный
Общий поток : 3186 Кбит/сек

Видео
Идентификатор : 224 (0xE0)
Формат : MPEG Video
Версия формата : Version 2
Профиль формата : Main@Main
Параметр BVOP формата : Да
Параметр матрицы формата : Выборочная
Параметр GOP формата : M=3, N=15
Продолжительность : 44 м.
Вид битрейта : Переменный
Битрейт : 2930 Кбит/сек
Максимальный битрейт : 8500 Кбит/сек
Ширина : 720 пикселей
Высота : 576 пикселей
Соотношение сторон : 16:9
Частота кадров : 25,000 кадров/сек
Стандарт вещания : PAL
Цветовое пространство : YUV
Субдискретизация насыщенности : 4:2:0
Битовая глубина : 8 бит
Тип развёртки : Чересстрочная
Порядок развёртки : Верхнее поле первое
Метод сжатия : С потерями
Бит/(Пиксели*Кадры) : 0.283
Размер потока : 942 Мбайт (92%)

Аудио
Идентификатор : 189 (0xBD)-128 (0x80)
Формат : AC-3
Формат/Информация : Audio Coding 3
Расширение режима : CM (complete main)
Параметр Endianness формата : Big
Режим смешивания : DVD-Video
Продолжительность : 44 м.
Вид битрейта : Постоянный
Битрейт : 192 Кбит/сек
Каналы : 2 канала
Расположение каналов : Front: L R
Частота : 48,0 КГц
Битовая глубина : 16 бит
Метод сжатия : С потерями
Задержка видео : -800 мс.
Размер потока : 61,7 Мбайт (6%)




pb.wtf



Скачать Синдром дракона через торрент http://i54.fastpic.ru/big/2012/1215/0d/54e772c4d507834bb092c3eb9183170d.jpg Скачать фильм Синдром дракона через торрент бесплантно в хорошем качестве Описание: Сюжет фильма основан на реальных фактах, связанных с обнаружением в 1993 году в небольшом украинском городе Кировограде огромной ... 9.5 10 4
Info! Золотая раздача, скачанное не засчитывается.
Торрент: Зарегистрирован [2012-12-15 20:04] · скачан: 158 раз
Статус: √ проверено
Размер: 14.97 GB
Как cкачать? Как скачать Синдром дракона через торрент | qTorrent

28-11-2019 20:33  

Отключить всю рекламу на сайте

    Дорогой пользователь! Огромная просьба, поблагодарите релизера, оцените раздачу и оставьте свои комментарий, если Вы скачали Синдром дракона через торрент бесплатно! Внесите свою лепту в развитие PiratBit!
    Комментировать посты могут только пользователи прошедшие не сложную регистрацию
    Показать сообщения:    

    Синдром дракона через торрент
    Скачать бесплатно Синдром дракона
    Синдром дракона скачать торрент
    Синдром дракона смотреть онлайн
    Cкачать фильм Синдром дракона бесплатно
    Синдром дракона скачать торрент в хорошем качестве
    Синдром дракона смотреть онлайн бесплатно в хорошем качестве


    Вы не можете начинать темы
    Вы не можете отвечать на сообщения
    Вы не можете редактировать свои сообщения
    Вы не можете удалять свои сообщения
    Вы не можете голосовать в опросах
    Вы не можете прикреплять файлы к сообщениям
    Вы можете скачивать файлы