1 сезон

1 сезон

iTunes

1

КиноПоиск HD

Кинопоиск HD

iTunes

13

1 сезон

RePack

30

Новинка

ВАЖНО

ИГРА 18+

pack

RePack

MK11
pack

Легкие деньги

RePack

jed

RePack

fifa19

RePack

RDR2

RePack

NEED FOR SPEED™ PAYBACK

4 сезон

9 сезон

Бесстыжие 9 сезон

Все сериалы

все сериалы на PB.wtf

RePack

FAR CRY 5
  
Magnet ссылка

Рекрут / The Recruit (Роджер Дональдсон) [2003 г., боевик, триллер, драма, криминал, BDRip, DUB (Rus) + MVO (Ukr)] pb.wtf

Рекрут через торрент pb.wtf

Размер: 1.45 GB | Добавлен: 8 лет 4 мес. назад | Торрент скачан:310 раз
Скачать  

17-12-2012 20:31 Рекрут Скачать торрент  

Рекрут / The Recruit
«Доверие. Предательство. Обман. В ЦРУ не то, чем кажется ».

Год выпуска: 2003
Страна: США
Жанр: боевик, триллер, драма, криминал
Продолжительность: 01:55:01
Перевод: Дубляж + Профессиональный (многоголосый закадровый) - (Украинский - Так Треба Продакшн)

Режиссер: Роджер Дональдсон
Продюссер: Джефф Эппл, Гари Барбер, Роджер Бернбаум
Сценарий: Роджер Таун, Курт Уиммер, Митч Глейзер

Премьера в мире: 25 января 2003

В ролях: Аль Пачино, Колин Фаррелл, Бриджет Мойнэан, Гэбриел Махт, Кеннет Митчел, Майк Рилба, Рон Лиа, Карл Прюнер, Джини Колледжа, Дженни Ливайн

Описание: Джеймс Клэйтон вовсе не мечтал о карьере шпиона. Но соблазн узнать правду о таинственном исчезновении в 1990 году своего отца — секретного агента, заставляет его завербоваться в ЦРУ. Новоиспеченный рекрут неплохо проходит один тест за другим, однако задания становятся все изощреннее.
Обыденные события оказываются скрытой проверкой, а наставник героя, матерый разведчик Уолтер Берк все настойчивее намекает: происходящее на самом деле может быть не тем, чем кажется. Обстановка накаляется с каждым днем, и однажды Клэйтон узнает причину этого: в Лэнгли завелся «крот», и именно ему предстоит вычислить предателя.
Что это, очередной тест? Или шутки кончились, и на кону — национальная безопасность?..

Качество: BDRip (Исходник Blu-ray)
Формат: AVI
Видео кодек: XviD
Аудио кодек: AC3
Видео: 720х304, 23,976 fps, 1412 kbps, 0.269 bit/pixel
Аудио#1: 48 kHz, AC3 2.0, 192.00 kbps / Дубляж
Аудио#2: 48 kHz, AC3 2.0, 192.00 kbps / Профессиональный (многоголосый закадровый) - (Украинский - Так Треба Продакшн)
&
Общее
Полное имя : E:Фильмы МThe Recruit.2003.BDRip.Rus.Ukr.avi
Формат : AVI
Формат/Информация : Audio Video Interleave
Размер файла : 1,45 Гбайт
Продолжительность : 1 ч. 55 м.
Общий поток : 1811 Кбит/сек
Программа кодирования : VirtualDubModRus 1.5.10.2 (build 2542/release)
Библиотека кодирования : VirtualDubMod build 2542/release

Видео
Идентификатор : 0
Формат : MPEG-4 Visual
Профиль формата : Advanced Simple@L5
Параметр BVOP формата : 1
Параметр QPel формата : Нет
Параметр GMC формата : Без точки перехода
Параметр матрицы формата : Выборочная
Режим смешивания : Сжатый битовый поток
Идентификатор кодека : XVID
Идентификатор кодека/Подсказка : XviD
Продолжительность : 1 ч. 55 м.
Битрейт : 1412 Кбит/сек
Ширина : 720 пикселей
Высота : 304 пикселя
Соотношение сторон : 2,35:1
Частота кадров : 23,976 кадра/сек
Цветовое пространство : YUV
Субдискретизация насыщенности : 4:2:0
Битовая глубина : 8 бит
Тип развёртки : Прогрессивная
Метод сжатия : С потерями
Бит/(Пиксели*Кадры) : 0.269
Размер потока : 1,13 Гбайт (78%)
Библиотека кодирования : XviD 65

Аудио #1
Идентификатор : 1
Формат : AC-3
Формат/Информация : Audio Coding 3
Расширение режима : CM (complete main)
Параметр Endianness формата : Big
Идентификатор кодека : 2000
Продолжительность : 1 ч. 55 м.
Вид битрейта : Постоянный
Битрейт : 192 Кбит/сек
Каналы : 2 канала
Расположение каналов : Front: L R
Частота : 48,0 КГц
Битовая глубина : 16 бит
Метод сжатия : С потерями
Размер потока : 158 Мбайт (11%)
Выравнивание : Разделение по промежуткам
Продолжительность промежутка : 42 мс. (1,00 видеокадр)
Время предзагрузки промежутка : 500 мс.
Заголовок : Дубляж

Аудио #2
Идентификатор : 2
Формат : AC-3
Формат/Информация : Audio Coding 3
Расширение режима : CM (complete main)
Параметр Endianness формата : Big
Идентификатор кодека : 2000
Продолжительность : 1 ч. 55 м.
Вид битрейта : Постоянный
Битрейт : 192 Кбит/сек
Каналы : 2 канала
Расположение каналов : Front: L R
Частота : 48,0 КГц
Битовая глубина : 16 бит
Метод сжатия : С потерями
Размер потока : 158 Мбайт (11%)
Выравнивание : Разделение по промежуткам
Продолжительность промежутка : 42 мс. (1,00 видеокадр)
Время предзагрузки промежутка : 500 мс.
Заголовок : Профессиональный (многоголосый закадровый) - (Украинский - Так Треба Продакшн)


Рекрут скачать торрент


pb.wtf



Скачать Рекрут через торрент http://i54.fastpic.ru/big/2012/1217/be/30027c3d8e5ee9d369c60a797c4ec6be.jpg Скачать фильм Рекрут через торрент бесплантно в хорошем качестве Описание: Джеймс Клэйтон вовсе не мечтал о карьере шпиона. Но соблазн узнать правду о таинственном исчезновении в 1990 году своего отца — ... 10 10 4
Info! Золотая раздача, скачанное не засчитывается.
Торрент: Зарегистрирован [2012-12-17 20:31] · скачан: 310 раз
Статус: √ проверено
Размер: 1.45 GB
Как cкачать? Как скачать Рекрут через торрент | UTorrent

% Раздел Тема Автор DL S | L
Фильмы (HD 720p, 1080p) (48-60 fps) [ 5.45 GB ] Рекрут / The Recruit [2003 BDRip 720p / 60 FPS] DUB + 2xMVO + 3xAVO - от R.G. HD-Films slaventi-69 Скачать
2 | 0
Фильмы [HD 720p, 1080p] (Хороший звук DUB, MVO) [ 8.85 GB ] Рекрут / The Recruit [2003 BDRip-HEVC 1080p ] [GER Transfer] DUB+2xMVO+AVO bober100 Скачать
1 | 0
Фильмы 2001-2005 [ 2.18 GB ] Рекрут / The Recruit [2003 BDRip ] Vampir7 Скачать
1 | 0
Фильмы с авторской озвучкой [ 1.45 GB ] Рекрут / The Recruit [2003 HDRip] [AVO] killermax2013 Скачать
1 | 0
Фильмы [HD 720p, 1080p] (Хороший звук DUB, MVO) [ 10.36 GB ] Рекрут / The Recruit [2003 BDRip 1080p + MVO+AVO GER Transfer _denis_100 Скачать
1 | 0
Фильмы 2001-2005 [ 1.46 GB ] Рекрут / Recruit The [2002 HQRip] MoNaZ Скачать
1 | 0

28-11-2019 20:33  

Отключить всю рекламу на сайте

    Дорогой пользователь! Огромная просьба, поблагодарите релизера, оцените раздачу и оставьте свои комментарий, если Вы скачали Рекрут через торрент бесплатно! Внесите свою лепту в развитие PiratBit!
    Комментировать посты могут только пользователи прошедшие не сложную регистрацию
    Показать сообщения:    

    Рекрут через торрент
    Скачать бесплатно Рекрут
    Рекрут скачать торрент
    Рекрут смотреть онлайн
    Cкачать фильм Рекрут бесплатно
    Рекрут скачать торрент в хорошем качестве
    Рекрут смотреть онлайн бесплатно в хорошем качестве


    Вы не можете начинать темы
    Вы не можете отвечать на сообщения
    Вы не можете редактировать свои сообщения
    Вы не можете удалять свои сообщения
    Вы не можете голосовать в опросах
    Вы не можете прикреплять файлы к сообщениям
    Вы можете скачивать файлы