Ссылка на приватное зеркало нашего сайта всего за 1$. Внимание количество ограничено!!!

2 сезон

iTunes

1 сезон

1

2 сезон

2 сезон

iTunes

1 сезон

RePack

30

Ultimate

ВАЖНО

ИГРА 18+

pack

RePack

MK11
pack

Забери бонус

RePack

jed

!!Акция!!

Alien_Rage

RePack

fifa19

RePack

Assassins Creed: Odyssey

RePack

NEED FOR SPEED™ PAYBACK

4 сезон

9 сезон

Бесстыжие 9 сезон

Все сериалы

все сериалы на PB.wtf

RePack

FAR CRY 5
  

Серфер души / Soul Surfer (Шон МакНамара) [2011 г., драма, спорт, HDRip, DVO [студия Elrom]] pb.wtf

Серфер души через торрент pb.wtf

Размер: 1.37 GB | Добавлен: 7 лет 11 мес. назад | Торрент скачан:58 раз
Скачать  

18-12-2012 19:46 Серфер души Скачать торрент  

Серфер души / Soul Surfe

Год выпуска: 2011
Страна: США/ Brookwell-McNamara Entertainment, Enticing Entertainment, Island Film Group
Жанр: драма, спорт
Продолжительность: 01:46:28
Перевод: Профессиональный (двухголосый) [студия Elrom] + Оригинал

Режиссер: Шон МакНамара
Продюссер: Шон МакНамара, Дуглас Шварц, Дэвид Бруквелл
Сценарий: Шон МакНамара, Дебора Шварц, Дуглас Шварц

Бюджет: $18 000 000

PG
-Рекомендуется присутствие родителей
Мировой рейтинг IMDB 6.30 (2 186)


В ролях: Анна-Cофия Робб, Деннис Куэйд, Хелен Хант, Кэрри Андервуд, Росс Томас, Лоррэйн Николсон, Кевин Сорбо, Коуди Гомес, Соня Балморес, Крис Брошу

Описание: Спортивный байопик о жизни серфингистки Бетани Хэмилтон. С детства Бетани увлекалась серфингом, но в 13 лет у северного побережья Кауай на нее напала акула; в результате атаки девушка осталась без левой руки, и чуть было не погибла. Но сила воли и настоящий характер сыграли свое дело — Бэттани, несмотря ни на что, вновь встала на доску и начала принимать участие в соревнованиях на правах полностью здорового серфера.

Качество: HDRip
Формат: AVI
Видео кодек: XviD
Аудио кодек: ac3
Видео: XviD, 720x304 (2.35:1), 23.976 fps, 1 446 Kbps
Аудио #1: AC-3, 48.0 KHz, 2 ch, 192 Kbps, CBR (Russian)
Аудио #2: AC-3, 48.0 KHz, 2 ch, 192 Kbps, CBR (English)
General
Complete name : D:VideoNa.Volne.2011.P.HDRip.Rus.Eng.1400MB.avi
Format : AVI
Format/Info : Audio Video Interleave
File size : 1.37 GiB
Duration : 1h 46mn
Overall bit rate : 1 844 Kbps
Movie name : Soul Surfer (2011)

Writing application : VirtualDubMod 1.5.10.2 (build 2540/release)
Writing library : VirtualDubMod build 2540/release

Video
ID : 0
Format : MPEG-4 Visual
Format profile : Advanced Simple@L5
Format settings, BVOP : 4
Format settings, QPel : No
Format settings, GMC : No warppoints
Format settings, Matrix : Default (MPEG)
Codec ID : XVID
Codec ID/Hint : XviD
Duration : 1h 46mn
Bit rate : 1 446 Kbps
Width : 720 pixels
Height : 304 pixels
Display aspect ratio : 2.35:1
Frame rate : 23.976 fps
Color space : YUV
Chroma subsampling : 4:2:0
Bit depth : 8 bits
Scan type : Progressive
Compression mode : Lossy
Bits/(Pixel*Frame) : 0.275
Stream size : 1.07 GiB (78%)
Writing library : XviD 1.2.1 (UTC 2008-12-04)

Audio #1
ID : 1
Format : AC-3
Format/Info : Audio Coding 3
Mode extension : CM (complete main)
Format settings, Endianness : Big
Codec ID : 2000
Duration : 1h 46mn
Bit rate mode : Constant
Bit rate : 192 Kbps
Channel(s) : 2 channels
Channel positions : Front: L R
Sampling rate : 48.0 KHz
Bit depth : 16 bits
Compression mode : Lossy
Stream size : 146 MiB (10%)
Alignment : Split accross interleaves
Interleave, duration : 42 ms (1.00 video frame)
Interleave, preload duration : 500 ms

Audio #2
ID : 2
Format : AC-3
Format/Info : Audio Coding 3
Mode extension : CM (complete main)
Format settings, Endianness : Big
Codec ID : 2000
Duration : 1h 46mn
Bit rate mode : Constant
Bit rate : 192 Kbps
Channel(s) : 2 channels
Channel positions : Front: L R
Sampling rate : 48.0 KHz
Bit depth : 16 bits
Compression mode : Lossy
Stream size : 146 MiB (10%)
Alignment : Split accross interleaves
Interleave, duration : 42 ms (1.00 video frame)
Interleave, preload duration : 500 ms
pb.wtf



Скачать Серфер души через торрент http://i25.fastpic.ru/big/2011/0712/4f/b68fe8a6faccc5e55b3a356a60d86c4f.png Скачать фильм Серфер души через торрент бесплантно в хорошем качестве Описание: Спортивный байопик о жизни серфингистки Бетани Хэмилтон. С детства Бетани увлекалась серфингом, но в 13 лет у северного побережья ... 5 10 1
Info! Золотая раздача, скачанное не засчитывается.
Торрент: Зарегистрирован [2012-12-18 19:46] · скачан: 58 раз
Статус: √ проверено
Размер: 1.37 GB
Как cкачать? Как скачать Серфер души через торрент | qTorrent

% Раздел Тема Автор DL S | L
Фильмы 2011 [ 1.75 GB ] Сёрфер души / Жизнь на волне / Soul Surfer [2011 HDRip] [MVO] + [DVO] killermax2013 Скачать
1 | 0
Фильмы 2011 [ 1.46 GB ] Серфер души / Soul Surfer [2011 HDRip MVO[СТС]] -=Cherry=- Скачать
1 | 0
Фильмы [HD 720p, 1080p] (Хороший звук DUB, MVO) [ 12 GB ] Серфер души / Soul Surfer [2011 BDRip ] Flint3 Скачать
1 | 0

28-11-2019 20:33  

Отключить всю рекламу на сайте

18-12-2012 20:17 Серфер души Скачать торрент  

Пасиб. Смотрел док кино про нее.pb.wtf



    Дорогой пользователь! Огромная просьба, поблагодарите релизера, оцените раздачу и оставьте свои комментарий, если Вы скачали Серфер души через торрент бесплатно! Внесите свою лепту в развитие PiratBit!
    Комментировать посты могут только пользователи прошедшие не сложную регистрацию
    Показать сообщения:    

    Серфер души через торрент
    Скачать бесплатно Серфер души
    Серфер души скачать торрент
    Серфер души смотреть онлайн
    Cкачать фильм Серфер души бесплатно
    Серфер души скачать торрент в хорошем качестве
    Серфер души смотреть онлайн бесплатно в хорошем качестве


    Вы не можете начинать темы
    Вы не можете отвечать на сообщения
    Вы не можете редактировать свои сообщения
    Вы не можете удалять свои сообщения
    Вы не можете голосовать в опросах
    Вы не можете прикреплять файлы к сообщениям
    Вы можете скачивать файлы