Всегда рабочее зеркало без VPN и Proxy просто перед .vidak.icu напиши любое слово или цифру, Пример http://fcqp.vidak.icu

iTunes

2 сезон

1 сезон

1

1 сезон

iTunes

2 сезон

13

1 сезон

Deluxe

pack

Рекомендуем

Пиратка

30

ВАЖНО

RePack

MK11

RePack

jed

RePack

fifa19

RePack

RDR2

RePack

NEED FOR SPEED™ PAYBACK

Кинопоиск HD

6 сезон

 Острые козырьки 6 сезон

Все сериалы

все сериалы на PB.wtf

RePack

FAR CRY 5

Anonymous, нам критически не хватает 5601 руб. на оплату серверов и переферии за Апрель, помоги нам пожалуйста, вся надежда только на тебя. В благодарность мы отключим тебе всю рекламу на сайте!

×
  
Magnet ссылка

Отец невесты 2 / Father of the Bride Part II (Чарльз Шайер) [1995 г., мелодрама, комедия, семейный, HDRip, MVO, лицензия] pb.wtf

Отец невесты 2 через торрент pb.wtf

Размер: 1.46 GB | Добавлен: 9 лет 5 мес. назад | Торрент скачан:167 раз
Смотреть онлайн Отец невесты 2 | Скачать    Ребята, помогите собрать деньги на оплату серверов!!!

19-12-2012 13:42 Отец невесты 2 Скачать торрент  


Отец невесты 2 / Father of the Bride Part II
Год выпуска: 1995
Страна: США
Жанр: мелодрама, комедия, семейный
Продолжительность: 01:46:05
Перевод: Профессиональный многоголосый, Лицензия

Режиссер: Чарльз Шайер

Бюджет: $30 000 000
Премьера в мире: 8 декабря 1995



В ролях: Стив Мартин, Дайан Китон, Мартин Шорт, Кимберли Уильямс-Пэйсли, Джордж Ньюберн, Киран Калкин, Б.Д. Вонг, Питер Майкл Гец, Кейт Макгрегор-Стюарт, Джейн Адамс

Описание: Он еще слишком молод, чтобы стать дедушкой, но уже достаточно стар, чтобы заводить второго ребенка. И именно в тот момент, когда муж и отец скорбит об ушедшей молодости, его жена и дочь, как будто сговорившись, вдруг объявляют, что они беременны!
В довершении всего, к ним приезжает экстравагантный устроитель торжеств, который переворачивает их дом вверх дном… и это в то время, когда семья в тишине и покое ждет пополнения.

Качество: HDRip [BDRip 1080p]
Формат: AVI
Видео кодек: XviD
Аудио кодек: AC3
Видео: 704x384 (1.83:1), 23.976 fps, XviD build 64 ~1512 kbps avg, 0.23 bit/pixel
Аудио: 48 kHz, AC3 Dolby Digital, 3/2 (L,C,R,l,r) + LFE ch, ~448 kbps


Автор рипа: Dean24
скриншот  скриншот  
скриншот  скриншот  
скриншот  скриншот  




Общее:
Полное имя: D:Для сайтаRip'sotets_nevesty_2_HDRip.avi
Формат: AVI
Формат/Информация: Audio Video Interleave
Размер файла: 1,46 Гбайт
Продолжительность: 1 ч. 46 м.
Общий поток: 1970 Кбит/сек
Программа кодирования: VirtualDubMod 1.5.10.3 (build 2550/release)
Библиотека кодирования: VirtualDubMod build 2550/release

Видео:
Идентификатор: 0
Формат: MPEG-4 Visual
Профиль формата: Advanced Simple@L5
Параметр BVOP формата: 2
Параметр QPel формата: Нет
Параметр GMC формата: Без точки перехода
Параметр матрицы формата: Default (H.263)
Идентификатор кодека: XVID
Идентификатор кодека/Подсказка: XviD
Продолжительность: 1 ч. 46 м.
Битрейт: 1513 Кбит/сек
Ширина: 704 пикс.
Высота: 384 пикс.
Соотношение сторон: 16:9
Частота кадров: 23,976 кадр/сек
Цветовое пространство: YUV
Подвыборка цветности: 4:2:0
Битовая глубина: 8 бит
Тип развёртки: Прогрессивная
Метод сжатия: С потерями
Бит/(Пиксели*Кадры): 0.233
Размер потока: 1,12 Гбайт (77%)
Библиотека кодирования: XviD 64

Аудио:
Идентификатор: 1
Формат: AC-3
Формат/Информация: Audio Coding 3
Расширение режима: CM (complete main)
Идентификатор кодека: 2000
Продолжительность: 1 ч. 46 м.
Вид битрейта: Постоянный
Битрейт: 448 Кбит/сек
Каналы: 6 каналов
Расположение каналов: Front: L C R, Side: L R, LFE
Частота: 48,0 КГц
Битовая глубина: 16 бит
Метод сжатия: С потерями
Размер потока: 340 Мбайт (23%)
Выравнивание: Разделение по промежуткам
Продолжительность промежутка: 42 мс. (1,00 видеокадр)
Время предзагрузки промежутка: 500 ms
pb.wtf



Скачать Отец невесты 2 через торрент http://i51.fastpic.ru/big/2012/1219/cc/f793a6040d57569eb6b5da6af5dd3ccc.jpg Скачать, смотреть онлайн Отец невесты 2 бесплантно в хорошем качестве Описание: Он еще слишком молод, чтобы стать дедушкой, но уже достаточно стар, чтобы заводить второго ребенка. И именно в тот момент, когда ... 10 10 3
Info! Золотая раздача, скачанное не засчитывается.
Торрент: Зарегистрирован [2012-12-19 15:39] · скачан: 167 раз
Статус: √ проверено
Размер: 1.46 GB
Как cкачать? Как скачать Отец невесты 2 через торрент | UTorrent

% Раздел Тема Автор DL S | L
Фильмы [HD 720p, 1080p] (Хороший звук DUB, MVO) [ 15.27 GB ] Отец невесты 2 / Father of the Bride Part II [1995 BDRip 1080p by msltel] 3 x MVO AVO VO msltel Скачать
1 | 0
Фильмы [HD 720p, 1080p] (Хороший звук DUB, MVO) [ 5.59 GB ] Отец невесты 2 / Father of the Bride Part II [1995 BDRip 720p by msltel] 3 x MVO AVO VO msltel Скачать
1 | 0

28-11-2019 20:33  

Отключить всю рекламу на сайте

    Дорогой пользователь! Огромная просьба, поблагодарите релизера, оцените раздачу и оставьте свои комментарий, если Вы скачали Отец невесты 2 через торрент бесплатно!
    Комментировать посты могут только пользователи прошедшие не сложную регистрацию
    Показать сообщения:    

    Отец невесты 2 через торрент
    Скачать бесплатно Отец невесты 2
    Отец невесты 2 скачать торрент
    Отец невесты 2 смотреть онлайн
    Cкачать фильм Отец невесты 2 бесплатно
    Отец невесты 2 скачать торрент в хорошем качестве
    Отец невесты 2 смотреть онлайн бесплатно в хорошем качестве


    Вы не можете начинать темы
    Вы не можете отвечать на сообщения
    Вы не можете редактировать свои сообщения
    Вы не можете удалять свои сообщения
    Вы не можете голосовать в опросах
    Вы не можете прикреплять файлы к сообщениям
    Вы можете скачивать файлы