Мега распродажа FORZA HORIZON 4 ULTIMATE+ВСЕ DLC+ОНЛАЙН всего за 499р. 349 руб. (супер цена). Внимание количество ограничено!!!

Лицензия

30

iTunes

мы

iTunes

1

1 сезон

Чернобыль

1 сезон

Ральф против интернета

MVO

Покемон. Детектив Пикачу

8 сезон

Игра престолов

iTunes

1+1

ИГРА 18+

pack

ВАЖНО

!!Акция!!

Alien_RageХит недели

RePack

Resident Evil 21
pack

RePack

Metro:Exodus

!!Акция!!

Alien_Rage

RePack

fifa19

RePack

Assassins Creed: Odyssey

RePack

NEED FOR SPEED™ PAYBACK

3 сезон

9 сезон

Бесстыжие 9 сезон

Все сериалы

все сериалы на PB.wtf

RePack

FAR CRY 5
Ребята, катастрофически не хватает 2730р. для оплаты серверов за МАЙ (всвязи с блокировками трафик упал в 3 раза), 1-2р., выручайте.
  

Враг мой / Enemy Mine (Вольфганг Петерсен) [1985 г., фантастика, боевик, драма, приключения, HDTVRip, DUB + MVO (Ukr) + Оригинал + AVO ( (Юрий Живов))] pb.wtf

Враг мой через торрент pb.wtf

Размер: 2.05 GB | Добавлен: 6 лет 5 мес. назад | Торрент скачан:211 раз
Скачать  

19-12-2012 21:16 Враг мой Скачать торрент  

Враг мой / Enemy Mine
«Он друг или враг?»

Год выпуска: 1985
Страна: США
Жанр: фантастика, боевик, драма, приключения
Продолжительность: 01:43:38
Перевод: Дубляж + Профессиональный многоголосый (Ukr) + Оригинал + Авторский (Юрий Живов)

Режиссер: Вольфганг Петерсен
Продюссер: Стефен Дж. Фридман, Стэнли О’Тул
Сценарий: Эдвард Хмара, Барри Лонгиер

Бюджет: $33 000 000
Премьера в мире: 12 декабря 1985

В ролях: Деннис Куэйд, Луис Госсет мл., Брайон Джеймс, Ричард Маркус, Кэролин МакКормик, Бампер Робинсон, Джим Мапп, Лэнс Кервин, Скотт Крафт, Лу Майклс, Энди Гир

Описание: В глубинах нашей галактики, на огромном расстоянии от Земли люди ведут кровопролитную войну с расой рептилий. Войну, которой Земля отдает последние силы, войну на полное уничтожение.
В одной из жестоких схваток в окрестностях гористой планеты в системе двойной звезды пилот Виллис Дэвидж сбивает машину чужого, но тут же получает несколько попаданий и выходит из боя.
Единственное место, где можно выжить после падения — та самая планета. Но упав, он обнаруживает, что сбитый им чужой не погиб. Смертельные враги оказываются заперты в одной клетке, и выбор прост — уничтожить друг друга или заключить перемирие и попытаться спастись.
Что окажется сильнее: желание жить или ненависть и боль за погибших?

Качество: HDTVRip
Формат: AVI
Видео кодек: XviD
Аудио кодек: AC3
Видео: 720х304, 25,000 fps, 1853 kbps, 0.339 bit/pixel
Аудио#1: 48 kHz, AC3 5.1, 384.00 kbps / Дубляж с многоголосыми вставками
Аудио#2: 48 kHz, AC3 2.0, 192.00 kbps / Профессиональный (многоголосый закадровый) - (Украинский - 2+2)
Аудио#3: 48 kHz, AC3 2.0, 192.00 kbps / Оригинал (Английский)
Аудио#4: 48 kHz, AC3 2.0, 192.00 kbps / Профессиональный (одноголосый закадровый) Юрий Живов (внешняя)
Субтитры: Русские, Французкие, Английские - полные / внешние
&

Общее
Полное имя : E:Фильмы МEnemy Mine.1985.HDTVRipEnemy Mine.1985.HDTVRip.avi
Формат : AVI
Формат/Информация : Audio Video Interleave
Размер файла : 1,91 Гбайт
Продолжительность : 1 ч. 43 м.
Общий поток : 2640 Кбит/сек
Программа кодирования : VirtualDubModRus 1.5.10.2 (build 2542/release)
Библиотека кодирования : VirtualDubMod build 2542/release

Видео
Идентификатор : 0
Формат : MPEG-4 Visual
Профиль формата : Advanced Simple@L5
Параметр BVOP формата : 1
Параметр QPel формата : Нет
Параметр GMC формата : Без точки перехода
Параметр матрицы формата : Выборочная
Режим смешивания : Сжатый битовый поток
Идентификатор кодека : XVID
Идентификатор кодека/Подсказка : XviD
Продолжительность : 1 ч. 43 м.
Битрейт : 1853 Кбит/сек
Ширина : 720 пикселей
Высота : 304 пикселя
Соотношение сторон : 2,35:1
Частота кадров : 25,000 кадров/сек
Цветовое пространство : YUV
Субдискретизация насыщенности : 4:2:0
Битовая глубина : 8 бит
Тип развёртки : Прогрессивная
Метод сжатия : С потерями
Бит/(Пиксели*Кадры) : 0.338
Размер потока : 1,34 Гбайт (70%)
Библиотека кодирования : XviD 65

Аудио #1
Идентификатор : 1
Формат : AC-3
Формат/Информация : Audio Coding 3
Расширение режима : CM (complete main)
Параметр Endianness формата : Big
Идентификатор кодека : 2000
Продолжительность : 1 ч. 43 м.
Вид битрейта : Постоянный
Битрейт : 384 Кбит/сек
Каналы : 6 каналов
Расположение каналов : Front: L C R, Side: L R, LFE
Частота : 48,0 КГц
Битовая глубина : 16 бит
Метод сжатия : С потерями
Размер потока : 285 Мбайт (15%)
Выравнивание : Разделение по промежуткам
Продолжительность промежутка : 40 мс. (1,00 видеокадр)
Время предзагрузки промежутка : 500 мс.
Заголовок : Дубляж с многоголосыми вставками

Аудио #2
Идентификатор : 2
Формат : AC-3
Формат/Информация : Audio Coding 3
Расширение режима : CM (complete main)
Параметр Endianness формата : Big
Идентификатор кодека : 2000
Продолжительность : 1 ч. 43 м.
Вид битрейта : Постоянный
Битрейт : 192 Кбит/сек
Каналы : 2 канала
Расположение каналов : Front: L R
Частота : 48,0 КГц
Битовая глубина : 16 бит
Метод сжатия : С потерями
Размер потока : 142 Мбайт (7%)
Выравнивание : Разделение по промежуткам
Продолжительность промежутка : 40 мс. (1,00 видеокадр)
Время предзагрузки промежутка : 500 мс.
Заголовок : Профессиональный (многоголосый закадровый) - (Украинский - 2+2)

Аудио #3
Идентификатор : 3
Формат : AC-3
Формат/Информация : Audio Coding 3
Расширение режима : CM (complete main)
Параметр Endianness формата : Big
Идентификатор кодека : 2000
Продолжительность : 1 ч. 43 м.
Вид битрейта : Постоянный
Битрейт : 192 Кбит/сек
Каналы : 2 канала
Расположение каналов : Front: L R
Частота : 48,0 КГц
Битовая глубина : 16 бит
Метод сжатия : С потерями
Размер потока : 142 Мбайт (7%)
Выравнивание : Разделение по промежуткам
Продолжительность промежутка : 40 мс. (1,00 видеокадр)
Время предзагрузки промежутка : 500 мс.
Заголовок : Оригинал (Английский)


Враг мой скачать торрент


pb.wtf



Скачать Враг мой через торрент http://i52.fastpic.ru/big/2012/1217/3d/829bcff3e8097d8f318ac0253efb913d.jpg Скачать фильм Враг мой через торрент бесплантно в хорошем качестве Описание: В глубинах нашей галактики, на огромном расстоянии от Земли люди ведут кровопролитную войну с расой рептилий. Войну, которой ... 9.8 10 6
Info! Золотая раздача, скачанное не засчитывается.
Торрент: Зарегистрирован [2012-12-19 21:16] · скачан: 211 раз
Статус: √ проверено
Размер: 2.05 GB
Как cкачать? Как скачать Враг мой через торрент | qTorrent

% Раздел Тема Автор DL S | L
Фильмы до 2000 г. [ 2.17 GB ] Враг мой / Enemy Mine [1985 HDTVRip-AVC] DUB + MVO + Sub rusengfra + original eng -=Cherry=- Скачать
1 | 0
Фильмы до 2000 г. [ 1.24 GB ] Враг мой / Enemy Mine [1985 DVDRip DUB ] тукваква Скачать
1 | 0
Фильмы до 2000 г. [ 1.46 GB ] Враг мой / Enemy Mine [1985 DVDRip] chaga2009 Скачать
1 | 0


Последний раз редактировалось: bogyn (2012-12-26 18:09), всего редактировалось 1 раз


>> Регистрируемся здесь <<






Отзывы и комментарии о схеме читаем и пишем здесь: ---> Отзывы и комментарии о схеме

Новые благодарочки в телеграм довольных пользователей:
скриншот   скриншот   скриншот   скриншот   скриншот

20-12-2012 08:01 Враг мой Скачать торрент  

Шикарнейший фильм!!! Помню, как смотрел его лет в 5 или 6 в кинотеатре и сильно испугался - досматривать пришлось уже спустя несколько лет на видеокассете...))) Ностальгия))). Качать обязательно! Раздающему спасибо огромное.pb.wtf



26-01-2013 08:47 Враг мой Скачать торрент  

спасибо за фильм!классная вещь .вспомнил детсво)pb.wtf



22-10-2018 07:42 Враг мой Скачать торрент  

Великолепный фильм, абсолютная классика жанра. Хороший сценарий по одноименной повести Барри Лонгиера, получившей в 1980 премии *Хьюго* и *Небьюла*. Отличная игра, съемки, спецэффекты. Спасибо за раздачу.pb.wtf



    Дорогой пользователь! Огромная просьба, поблагодарите релизера, оцените раздачу и оставьте свои комментарий, если Вы скачали Враг мой через торрент бесплатно! Внесите свою лепту в развитие PiratBit!
    Комментировать посты могут только пользователи прошедшие не сложную регистрацию
    Показать сообщения:    

    Враг мой через торрент
    Скачать бесплатно Враг мой
    Враг мой скачать торрент
    Враг мой смотреть онлайн
    Cкачать фильм Враг мой бесплатно
    Враг мой скачать торрент в хорошем качестве
    Враг мой смотреть онлайн бесплатно в хорошем качестве


    Вы не можете начинать темы
    Вы не можете отвечать на сообщения
    Вы не можете редактировать свои сообщения
    Вы не можете удалять свои сообщения
    Вы не можете голосовать в опросах
    Вы не можете прикреплять файлы к сообщениям
    Вы можете скачивать файлы