1 сезон

1 сезон

iTunes

1

КиноПоиск HD

Кинопоиск HD

iTunes

13

1 сезон

RePack

30

Новинка

ВАЖНО

ИГРА 18+

pack

RePack

MK11
pack

Легкие деньги

RePack

jed

RePack

fifa19

RePack

RDR2

RePack

NEED FOR SPEED™ PAYBACK

4 сезон

9 сезон

Бесстыжие 9 сезон

Все сериалы

все сериалы на PB.wtf

RePack

FAR CRY 5
  
Magnet ссылка

Набережная Орфевр, 36 / 36 Quai des Orfevres (Оливье Маршаль) [2004 г., боевик, триллер, драма, криминал, HDRip-AVC, DUB + Оригинал] pb.wtf

Набережная Орфевр, 36 через торрент pb.wtf

Размер: 2.03 GB | Добавлен: 8 лет 3 мес. назад | Торрент скачан:65 раз
Скачать  

20-12-2012 06:14 Набережная Орфевр, 36 Скачать торрент  

Набережная Орфевр, 36 / 36 Quai des Orfevres

Год выпуска: 2004
Страна: Франция
Жанр: боевик, триллер, драма, криминал
Продолжительность: 01:51:01
Перевод: Дубляж + Оригинал

Режиссер: Оливье Маршаль
Продюссер: Грегори Барри, Франк Шоро, Сирил Колбо-Жустин
Сценарий: Оливье Маршаль, Франк Манкузо, Жюльен Рапно

Премьера в мире: 24 ноября 2004



В ролях: Даниель Отой, Жерар Депардье, Андре Дюссолье, Рошди Зем, Валерия Голино, Даниэль Дюваль, Милен Демонжо, Катрин Маршаль, Франсис Рено, Ален Фиглаж
Роли дублировали: Олег Куценко, Александр Клюквин, Олег Форостенко, Александр Груздев, Мария Овчинникова

Описание: В Париже вот уже несколько месяцев хозяйничает банда неуловимых и опасных преступников. Чуть ли не каждый день они умудряются совершать нападения на хорошо охраняемые инкассаторские машины, и каждый раз выходят сухими из воды.У двух талантливых и амбициозных полицейских — Лео Вринкса, начальника Отдела по борьбе с бандитизмом, и Дэниса Клейна, главы Отдела по борьбе с организованной преступностью, появляется реальный шанс подняться по служебной лестнице. Шеф полиции Роберт Манчини, их добрый друг, ставит им следующее условие: тот, кто сумеет разоружить банду налетчиков, станет Шефом полиции знаменитого Управления по адресу Набережная Орфевр, 36. Между двумя суперполицейскими разворачивается настоящая борьба.Бывшие друзья, а ныне непримиримые враги, испытывают разногласия буквально во всем — начиная от методов поимки преступников и заканчивая выбором подчиненных. Кроме того, вот уже много лет между ними стоит прекрасная женщина Камилль Вринкс. А если дело касается женщины, то компромиссов быть не может!

Качество: HDRip-AVC
Формат: MKV
Видео кодек: H.264
Аудио кодек: AC3
Видео: 720x 384 (1,85:1),23,976fps, AVC MPEG-4 (H.264), ~1789 kbps avg, 0.270 bit/pixel
Аудио#1: русский 48 kHz, AC3 Dolby Digital, 3/2 (L,C,R,l,r) + LFE ch, ~384 kbps avg Дубляж
Аудио#2: французкий 48 kHz, AC3 Dolby Digital, 3/2 (L,C,R,l,r) + LFE ch, ~448 kbps avg Оригинал
Автор рипа:






Общее
Уникальный идентификатор : 215587524024180625495032522292218010219 (0xA230A595B2784CBB9F7F7EF35DEB9A6B)
Полное имя : H:36 Quai des Orfevres.mkv
Формат : Matroska
Версия формата : Version 2
Размер файла : 2,03 Гбайт
Продолжительность : 1 ч. 51 м.
Общий поток : 2616 Кбит/сек
Дата кодирования : UTC 2012-12-19 15:02:42
Программа кодирования : mkvmerge v4.4.0 ('Die Wiederkehr') сборка от Oct 31 2010 21:52:48
Библиотека кодирования : libebml v1.0.0 + libmatroska v1.0.0

Видео
Идентификатор : 1
Формат : AVC
Формат/Информация : Advanced Video Codec
Профиль формата : High@L4.1
Параметр CABAC формата : Да
Параметр ReFrames формата : 8 кадров
Режим смешивания : Header stripping
Идентификатор кодека : V_MPEG4/ISO/AVC
Продолжительность : 1 ч. 51 м.
Битрейт : 1789 Кбит/сек
Ширина : 720 пикселей
Высота : 384 пикселя
Соотношение сторон : 1,85:1
Частота кадров : 23,976 кадра/сек
Цветовое пространство : YUV
Субдискретизация насыщенности : 4:2:0
Битовая глубина : 8 бит
Тип развёртки : Прогрессивная
Бит/(Пиксели*Кадры) : 0.270
Размер потока : 1,34 Гбайт (66%)
Библиотека кодирования : x264 core 125 r2200 999b753
Настройки программы : cabac=1 / ref=8 / deblock=1:-1:-1 / analyse=0x3:0x133 / me=umh / subme=7 / psy=1 / psy_rd=1.00:0.00 / mixed_ref=1 / me_range=16 / chroma_me=1 / trellis=2 / 8x8dct=1 / cqm=0 / deadzone=21,11 / fast_pskip=0 / chroma_qp_offset=-2 / threads=6 / lookahead_threads=1 / sliced_threads=0 / nr=0 / decimate=1 / interlaced=0 / bluray_compat=0 / constrained_intra=0 / bframes=8 / b_pyramid=2 / b_adapt=2 / b_bias=0 / direct=3 / weightb=1 / open_gop=0 / weightp=2 / keyint=250 / keyint_min=23 / scenecut=40 / intra_refresh=0 / rc_lookahead=50 / rc=2pass / mbtree=1 / bitrate=1789 / ratetol=1.0 / qcomp=0.60 / qpmin=0 / qpmax=69 / qpstep=4 / cplxblur=20.0 / qblur=0.5 / ip_ratio=1.40 / aq=1:1.00
Default : Да
Forced : Нет

Аудио #1
Идентификатор : 2
Формат : AC-3
Формат/Информация : Audio Coding 3
Расширение режима : CM (complete main)
Параметр Endianness формата : Big
Режим смешивания : Header stripping
Идентификатор кодека : A_AC3
Продолжительность : 1 ч. 51 м.
Вид битрейта : Постоянный
Битрейт : 384 Кбит/сек
Каналы : 6 каналов
Расположение каналов : Front: L C R, Side: L R, LFE
Частота : 48,0 КГц
Битовая глубина : 16 бит
Метод сжатия : С потерями
Размер потока : 305 Мбайт (15%)
Язык : Russian
Default : Да
Forced : Нет

Аудио #2
Идентификатор : 3
Формат : AC-3
Формат/Информация : Audio Coding 3
Расширение режима : CM (complete main)
Параметр Endianness формата : Big
Режим смешивания : Header stripping
Идентификатор кодека : A_AC3
Продолжительность : 1 ч. 51 м.
Вид битрейта : Постоянный
Битрейт : 448 Кбит/сек
Каналы : 6 каналов
Расположение каналов : Front: L C R, Side: L R, LFE
Частота : 48,0 КГц
Битовая глубина : 16 бит
Метод сжатия : С потерями
Размер потока : 356 Мбайт (17%)
Язык : French
Default : Нет
Forced : Нет


Набережная Орфевр, 36 скачать торрент


pb.wtf



Скачать Набережная Орфевр, 36 через торрент https://pic.kartinco.top/images/1/54hnjemxqt.png Скачать фильм Набережная Орфевр, 36 через торрент бесплантно в хорошем качестве Описание: В Париже вот уже несколько месяцев хозяйничает банда неуловимых и опасных преступников. Чуть ли не каждый день они умудряются ... 10 10 2
Info! Золотая раздача, скачанное не засчитывается.
Торрент: Зарегистрирован [2012-12-20 06:14] · скачан: 65 раз
Статус: √ проверено
Размер: 2.03 GB
Как cкачать? Как скачать Набережная Орфевр, 36 через торрент | UTorrent

28-11-2019 20:33  

Отключить всю рекламу на сайте

20-12-2012 08:20 Набережная Орфевр, 36 Скачать торрент  

ПОСМОТРИМ...! КТО СМОТРЕЛ КАК ФИЛЬМ ?pb.wtf



23-12-2012 19:54 Набережная Орфевр, 36 Скачать торрент  

я в том, 2004-м даже всплакнул вконце. 7,5 по 10-кеpb.wtf



    Дорогой пользователь! Огромная просьба, поблагодарите релизера, оцените раздачу и оставьте свои комментарий, если Вы скачали Набережная Орфевр, 36 через торрент бесплатно! Внесите свою лепту в развитие PiratBit!
    Комментировать посты могут только пользователи прошедшие не сложную регистрацию
    Показать сообщения:    

    Набережная Орфевр, 36 через торрент
    Скачать бесплатно Набережная Орфевр, 36
    Набережная Орфевр, 36 скачать торрент
    Набережная Орфевр, 36 смотреть онлайн
    Cкачать фильм Набережная Орфевр, 36 бесплатно
    Набережная Орфевр, 36 скачать торрент в хорошем качестве
    Набережная Орфевр, 36 смотреть онлайн бесплатно в хорошем качестве


    Вы не можете начинать темы
    Вы не можете отвечать на сообщения
    Вы не можете редактировать свои сообщения
    Вы не можете удалять свои сообщения
    Вы не можете голосовать в опросах
    Вы не можете прикреплять файлы к сообщениям
    Вы можете скачивать файлы