1 сезон

3 сезон

iTunes

1

Line

MVO

iTunes

13

1 сезон

RePack

30

Deluxe

pack

Лицензия

ВАЖНО

ИГРА 18+

pack

RePack

MK11

RePack

jed

RePack

fifa19

RePack

RDR2

RePack

NEED FOR SPEED™ PAYBACK

4 сезон

9 сезон

Бесстыжие 9 сезон

Все сериалы

все сериалы на PB.wtf

RePack

FAR CRY 5

Anonymous, добрый вечер, мы катастрофически не успеваем собрать деньги на оплату серверов, помогите нам пожалуйста 5,10,15р., для нас важна любая помощь . В качестве благодарности мы отключим Вам всю рекламу на сайте (укажите свой ник в строку Ваше имя)!

×
  
Magnet ссылка

К-9: Рождественские приключения / K9 Adventures: A Christmas Tale (Бен Гурли / Ben Gourley) [2012, семейный, DVD5] R5 pb.wtf

К-9: Рождественские приключения через торрент pb.wtf

Размер: 4.31 GB | Добавлен: 8 лет 7 мес. назад | Торрент скачан:81 раз
Скачать  

20-12-2012 08:57 К-9: Рождественские приключения Скачать торрент  


К-9: Рождественские приключения / K9 Adventures: A Christmas Tale
Страна: США
Студия: Wulf / Gourley Productions
Жанр: семейный
Год выпуска: 2012
Дата выхода DVD: 13 декабря 2012
Продолжительность: 01:25:31
Перевод: Профессиональный (многоголосый закадровый) [Лицензия]
Cубтитры: нет
Оригинальная аудиодорожка: нет
Режиссер: Бен Гурли / Ben Gourley
В ролях: Люк Перри, Тейлор Негрон, Адам Джонсон, Шантель Фландерс, Бренден Уитни, Джэйк Суазо, Cate Ganiere, Ariana Bagley, Braxton Hew-Len, Chloe Richmond...
Описание: Бывший полицейский пес по кличке Скут попадает в беду, но от неминуемой гибели его спасает девочка Кэсси. Подружившись, Скут и Кэсси помогают детскому хору собирать рождественские пожертвования для обездоленных детей. Но однажды, когда они появляются в офисе отца Кэсси, Скут узнает своих обидчиков, которые к тому же оказываются мошенниками и хотят завладеть всеми собранными деньгами. Теперь друзьям предстоит остановить мошенников и спасти Рождественский праздник.
Бонусы: нет

Релиз группы:
Качество: DVD5 R5
Формат: DVD-Video
Видео кодек: MPEG2
Аудио кодек: AC3
Видео: PAL 16:9 (720x576(0.710)) MPEG Video, 25,000 кадр/сек, 7361 Кбит/сек
Аудио: Russian (Dolby AC3, 2 ch) 192 Кбит/сек, 48,0 КГц



Title: K9.Rozhdesvenskie.priklyucheniya.2012.DVD5
Size: 4.31 Gb ( 4 516 818,00 KBytes ) - DVD-5
Enabled regions: 1, 2, 3, 4, 5, 6, 7, 8

VTS_01 :
Play Length: 00:00:56+01:25:30
Video: PAL 16:9 (720x576) VBR, Auto Letterboxed
Audio:
Russian (Dolby AC3, 2 ch)

* Menus Information *

VIDEO_TS Menu
Video:
PAL 16:9 (720x576) VBR
Auto Letterboxed
Audio:
Not specified (Dolby AC3, 2 ch)
Russian Language Unit :
Title Menu

VTS_01 Menu
Video:
PAL 16:9 (720x576) VBR
Auto Letterboxed
Audio:
Not specified (Dolby AC3, 2 ch)
Russian Language Unit :
Root Menu
Chapter (PTT) Menu
Общее
Полное имя : J:Новинки 2012K9.Rozhdesvenskie.priklyucheniya.2012.DVD5VIDEO_TSVTS_01_1.VOB
Формат : MPEG-PS
Размер файла : 1024 Мбайт
Продолжительность : 18 м.
Режим общего битрейта : Переменный
Общий поток : 7706 Кбит/сек

Видео
Идентификатор : 224 (0xE0)
Формат : MPEG Video
Версия формата : Version 2
Профиль формата : Main@Main
Параметр BVOP формата : Да
Параметр матрицы формата : Выборочная
Параметр GOP формата : M=3, N=15
Продолжительность : 18 м.
Вид битрейта : Переменный
Битрейт : 7361 Кбит/сек
Максимальный битрейт : 8000 Кбит/сек
Ширина : 720 пикселей
Высота : 576 пикселей
Соотношение сторон : 16:9
Частота кадров : 25,000 кадров/сек
Стандарт вещания : PAL
Цветовое пространство : YUV
Субдискретизация насыщенности : 4:2:0
Битовая глубина : 8 бит
Тип развёртки : Чересстрочная
Порядок развёртки : Верхнее поле первое
Метод сжатия : С потерями
Бит/(Пиксели*Кадры) : 0.710
Размер потока : 978 Мбайт (96%)

Аудио
Идентификатор : 189 (0xBD)-128 (0x80)
Формат : AC-3
Формат/Информация : Audio Coding 3
Расширение режима : CM (complete main)
Параметр Endianness формата : Big
Режим смешивания : DVD-Video
Продолжительность : 18 м.
Вид битрейта : Постоянный
Битрейт : 192 Кбит/сек
Каналы : 2 канала
Расположение каналов : Front: L R
Частота : 48,0 КГц
Битовая глубина : 16 бит
Метод сжатия : С потерями
Размер потока : 25,5 Мбайт (2%)










pb.wtf



Скачать К-9: Рождественские приключения через торрент http://i51.fastpic.ru/big/2012/1220/9a/0778261b4b11baddc42cfd2f2ddfd69a.jpg Скачать фильм К-9: Рождественские приключения через торрент бесплантно в хорошем качестве Описание: Бывший полицейский пес по кличке Скут попадает в беду, но от неминуемой гибели его спасает девочка Кэсси. Подружившись, Скут и ... 5 10 1
Info! Золотая раздача, скачанное не засчитывается.
Торрент: Зарегистрирован [2012-12-20 08:57] · скачан: 81 раз
Статус: √ проверено
Размер: 4.31 GB
Как cкачать? Как скачать К-9: Рождественские приключения через торрент | UTorrent

28-11-2019 20:33  

Отключить всю рекламу на сайте

20-12-2012 09:13 К-9: Рождественские приключения Скачать торрент  

voovaz

Код:

[img=right]http://i51.fastpic.ru/big/2012/1220/08/497e1a39fbc84fceb2658f2e94222608.png[/img]

:ad:pb.wtf



20-12-2012 11:52 К-9: Рождественские приключения Скачать торрент  

voovaz
У тебя где то тег не закрыт. просмотри. не корректно отображается.pb.wtf



21-12-2012 04:14 К-9: Рождественские приключения Скачать торрент  

В Кинопоиске http://www.kinopoisk.ru/film/708792/ нет оценок зеачем писать чушь Этот фильм если наберет 5 то это будет славненько!pb.wtf



    Дорогой пользователь! Огромная просьба, поблагодарите релизера, оцените раздачу и оставьте свои комментарий, если Вы скачали К-9: Рождественские приключения через торрент бесплатно! Внесите свою лепту в развитие PiratBit!
    Комментировать посты могут только пользователи прошедшие не сложную регистрацию
    Показать сообщения:    

    К-9: Рождественские приключения через торрент
    Скачать бесплатно К-9: Рождественские приключения
    К-9: Рождественские приключения скачать торрент
    К-9: Рождественские приключения смотреть онлайн
    Cкачать фильм К-9: Рождественские приключения бесплатно
    К-9: Рождественские приключения скачать торрент в хорошем качестве
    К-9: Рождественские приключения смотреть онлайн бесплатно в хорошем качестве


    Вы не можете начинать темы
    Вы не можете отвечать на сообщения
    Вы не можете редактировать свои сообщения
    Вы не можете удалять свои сообщения
    Вы не можете голосовать в опросах
    Вы не можете прикреплять файлы к сообщениям
    Вы можете скачивать файлы