1 сезон

3 сезон

iTunes

1

iTunes

MVO

iTunes

13

1 сезон

RePack

30

Deluxe

pack

Лицензия

ВАЖНО

ИГРА 18+

pack

RePack

MK11

RePack

jed

RePack

fifa19

RePack

RDR2

RePack

NEED FOR SPEED™ PAYBACK

4 сезон

9 сезон

Бесстыжие 9 сезон

Все сериалы

все сериалы на PB.wtf

RePack

FAR CRY 5

Anonymous, доброй ночи, мы катастрофически не успеваем собрать деньги на оплату серверов, помогите нам пожалуйста 5,10,15р., для нас важна любая помощь . В качестве благодарности мы отключим Вам всю рекламу на сайте (укажите свой ник в строку Ваше имя)!

×
  
Magnet ссылка

Суши гёл / Sushi Girl (Керн Сэкстон / Kern Saxton) [2012, триллер, криминал, DVD5] R5 pb.wtf

Суши гёл через торрент pb.wtf

Размер: 3.89 GB | Добавлен: 8 лет 7 мес. назад | Торрент скачан:157 раз
Скачать  

21-12-2012 19:43 Суши гёл Скачать торрент  


Суши гёл / Sushi Girl
«20-ти летию «БЕШЕНЫХ ПСОВ» Квентина Тарантино посвящается»
Страна: США
Студия: Assembly Line, Level Up Productions, Stray Angel Films, Sushi Girl Films
Жанр: триллер, криминал
Год выпуска: 2012
Мировая премьера: 21 июля 201
Российская премьера: 29 ноября 2012
Дата выхода DVD: 18 декабря 2012
Дата выхода Blu-Ray: 18 декабря 2012
Продолжительность: 01:39:28
Перевод: Профессиональный (дублированный) [Лицензия]
Cубтитры: нет
Оригинальная аудиодорожка: нет
Режиссер: Керн Сэкстон / Kern Saxton
В ролях: Джеймс Дювал, Ноа Хэтауэй, Энди МакКензи, Майкл Бин, Тони Тодд, Марк Хэмилл, Сонни Чиба, Давид Дастмалчян, Джефф Фэйи, Кортни Палм, Дэнни Трехо...
Описание: Налетчик по кличке Фиш провел шесть лет в тюрьме. Все эти шесть лет он молчал о совершенном грабеже и своих четырех подельниках. У ворот тюрьмы, после освобождения, его встречает машина и отвозит в место, где собираются все его бывшие друзья, участники громкого ограбления. На столе, в виде угощения, лежит молодая, обнаженная и красивая девушка с разнообразными видами суши на теле. Девушка кажется полностью безмолвной, обученной молчать и не реагировать на то, что происходит вокруг. Даже, если будет опасно. Матерые преступники начинают выяснять меж собой, куда после ограбления пропали бриллианты на несколько миллионов долларов.
Бонусы: нет

Релиз группы:
Качество: DVD5 R5
Формат: DVD-Video
Видео кодек: MPEG2
Аудио кодек: AC3
Видео: PAL 16:9 (720x576(0.482)) MPEG Video, 25,000 кадр/сек, 4995 Кбит/сек
Аудио #1: Russian (Dolby AC3, 2 ch) 192 Кбит/сек, 48,0 КГц
Аудио #2: Russian (Dolby AC3, 6 ch) 448 Кбит/сек, 48,0 КГц



Title: Sushi.gel.2012.DVD5
Size: 3.89 Gb ( 4 083 682,00 KBytes ) - DVD-5
Enabled regions: 1, 2, 3, 4, 5, 6, 7, 8

VTS_01 :
Play Length: 00:00:02
Video: PAL 16:9 (720x576) VBR, Auto Letterboxed
Audio:
Russian (Dolby AC3, 2 ch)
Russian (Dolby AC3, 2 ch)
Subtitles:
Russian
Russian
Not specified

VTS_02 :
Play Length: 00:00:07
Video: PAL 16:9 (720x576) VBR, Auto Letterboxed
Audio:
Russian (Dolby AC3, 2 ch)
Russian (Dolby AC3, 2 ch)

VTS_03 :
Play Length: 01:39:28
Video: PAL 16:9 (720x576) VBR, Auto Letterboxed
Audio:
Russian (Dolby AC3, 2 ch)
Russian (Dolby AC3, 6 ch)

* Menus Information *

VIDEO_TS Menu
Video:
PAL 16:9 (720x576) VBR
Auto Pan&Scan, Auto Letterboxed
English Language Unit :
Title Menu

VTS_01 Menu
Video:
PAL 16:9 (720x576) VBR
Auto Letterboxed
Audio:
Not specified (Dolby AC3, 2 ch)
English Language Unit :
Root Menu

VTS_02 Menu
Video:
PAL 4:3 (720x576) VBR
English Language Unit :
Root Menu

VTS_03 Menu
Video:
PAL 4:3 (720x576) VBR
English Language Unit :
Root Menu
Subpicture Menu
Audio Menu
Chapter (PTT) Menu
Общее
Полное имя : J:Новинки 2012Sushi.gel.2012.DVD5VIDEO_TSVTS_03_1.VOB
Формат : MPEG-PS
Размер файла : 1024 Мбайт
Продолжительность : 24 м.
Режим общего битрейта : Переменный
Общий поток : 5749 Кбит/сек

Видео
Идентификатор : 224 (0xE0)
Формат : MPEG Video
Версия формата : Version 2
Профиль формата : Main@Main
Параметр BVOP формата : Да
Параметр матрицы формата : По умолчанию
Параметр GOP формата : M=3, N=12
Продолжительность : 24 м.
Вид битрейта : Переменный
Битрейт : 4995 Кбит/сек
Максимальный битрейт : 8400 Кбит/сек
Ширина : 720 пикселей
Высота : 576 пикселей
Соотношение сторон : 16:9
Частота кадров : 25,000 кадров/сек
Стандарт вещания : PAL
Цветовое пространство : YUV
Субдискретизация насыщенности : 4:2:0
Битовая глубина : 8 бит
Тип развёртки : Прогрессивная
Метод сжатия : С потерями
Бит/(Пиксели*Кадры) : 0.482
Размер потока : 890 Мбайт (87%)

Аудио #1
Идентификатор : 189 (0xBD)-128 (0x80)
Формат : AC-3
Формат/Информация : Audio Coding 3
Расширение режима : CM (complete main)
Параметр Endianness формата : Big
Режим смешивания : DVD-Video
Продолжительность : 24 м.
Вид битрейта : Постоянный
Битрейт : 192 Кбит/сек
Каналы : 2 канала
Расположение каналов : Front: L R
Частота : 48,0 КГц
Битовая глубина : 16 бит
Метод сжатия : С потерями
Размер потока : 34,2 Мбайт (3%)

Аудио #2
Идентификатор : 189 (0xBD)-129 (0x81)
Формат : AC-3
Формат/Информация : Audio Coding 3
Расширение режима : CM (complete main)
Параметр Endianness формата : Big
Режим смешивания : DVD-Video
Продолжительность : 24 м.
Вид битрейта : Постоянный
Битрейт : 448 Кбит/сек
Каналы : 6 каналов
Расположение каналов : Front: L C R, Side: L R, LFE
Частота : 48,0 КГц
Битовая глубина : 16 бит
Метод сжатия : С потерями
Размер потока : 79,8 Мбайт (8%)










pb.wtf



Скачать Суши гёл через торрент http://i51.fastpic.ru/big/2012/1221/88/5c75abf957b91919003e1fa5100d3788.jpg Скачать фильм Суши гёл через торрент бесплантно в хорошем качестве Описание: Налетчик по кличке Фиш провел шесть лет в тюрьме. Все эти шесть лет он молчал о совершенном грабеже и своих четырех подельниках. ... 5 10 1
Info! Золотая раздача, скачанное не засчитывается.
Торрент: Зарегистрирован [2012-12-21 19:43] · скачан: 157 раз
Статус: √ проверено
Размер: 3.89 GB
Как cкачать? Как скачать Суши гёл через торрент | UTorrent

28-11-2019 20:33  

Отключить всю рекламу на сайте

21-12-2012 19:59 Суши гёл Скачать торрент  

как фильм???
pb.wtf



21-12-2012 20:11 Суши гёл Скачать торрент  

Фильм полное говно не смотрите, жаль потраченного времениpb.wtf



22-12-2012 05:34 Суши гёл Скачать торрент  

skadiermak писал(а):

Фильм полное <ЦЕНЗУРА> не смотрите, жаль потраченного времени

Спасибо за совет.pb.wtf



22-12-2012 06:29 Суши гёл Скачать торрент  

типа судить по одному - НЕАДЕКВАТНОМУ комментарию - глупо.

и не факт что человек вообще его смотрел.pb.wtf



    Дорогой пользователь! Огромная просьба, поблагодарите релизера, оцените раздачу и оставьте свои комментарий, если Вы скачали Суши гёл через торрент бесплатно! Внесите свою лепту в развитие PiratBit!
    Комментировать посты могут только пользователи прошедшие не сложную регистрацию
    Показать сообщения:    

    Суши гёл через торрент
    Скачать бесплатно Суши гёл
    Суши гёл скачать торрент
    Суши гёл смотреть онлайн
    Cкачать фильм Суши гёл бесплатно
    Суши гёл скачать торрент в хорошем качестве
    Суши гёл смотреть онлайн бесплатно в хорошем качестве


    Вы не можете начинать темы
    Вы не можете отвечать на сообщения
    Вы не можете редактировать свои сообщения
    Вы не можете удалять свои сообщения
    Вы не можете голосовать в опросах
    Вы не можете прикреплять файлы к сообщениям
    Вы можете скачивать файлы