Anonymous, доброе утро, присоединяйтесь к нам в Telegram!, здесь всегда актуальный адрес сайта, оперативная поддержка и многое другое!

>

5.6

iTunes

7.4

iTunes

5.7

MVO

1

7.7

1 сезон

6.8

iTunes

7.3

1 сезон

13

6.7

1 сезон

8.3

RePack

30

ULTIMATE

pack

9.9

Лицензия

ВАЖНО

ИГРА 18+

pack

7.3

RePack

MK11

7.7

RePack

jed

7.8

RePack

fifa19

8.5

RePack

RDR2

RePack

NEED FOR SPEED™ PAYBACK

4 сезон

9 сезон

Бесстыжие 9 сезон

Все сериалы

все сериалы на PB.wtf

RePack

FAR CRY 5

Anonymous, доброе утро, мы катастрофически не успеваем собрать деньги на оплату серверов, помогите нам пожалуйста 5,10,15р., для нас важна любая помощь . В качестве благодарности мы отключим Вам всю рекламу на сайте (укажите свой ник в строку Ваше имя)!

×
  
Magnet ссылка

Триагрутрика - Вечерний Челябинск 2012 / FLAC (image+.cue) / lossless / Rap / Hip-Hop pb.wtf

Триагрутрика - Вечерний Челябинск 2012 через торрент pb.wtf

Размер: 323 MB | Добавлен: 8 лет 9 мес. назад | Торрент скачан:212 раз
Смотреть онлайн Триагрутрика - Вечерний Челябинск 2012 | Скачать    Ребята, помогите собрать деньги на оплату серверов!!!

23-12-2012 03:03 Триагрутрика - Вечерний Челябинск 2012 Скачать торрент  

Триагрутрика - Вечерний Челябинск (2012)
Страна-производитель диска: Россия
Год Выпуска: 2012
Жанр: Rap / Hip-Hop
Издатель (лейбл): Газгольдер-Рекорд
Номер по каталогу: CDG 016/2012
Страна: Россия (Челябинск)
Продолжительность: 00:59:33
Кодек: FLAC (*.flac)
Тип рипа: image+.cue
Битрейт: lossless
Наличие сканов в содержимом раздачи: да
  • 01. Рифмы из нового фонда
  • 02. Доказательстфло
  • 03. Маета
  • 04. Бит фит хит щит
  • 05. Олдскуловая сага
  • 06. Блэк дэй
  • 07. Биг сити лайф
  • 08. В моем городе звезд...
  • 09. Спасибо подзарядке
  • 10. Живу
  • 11. Осень весной
  • 12. Хип-хоп уан лов
  • 13. Алые паруса
  • 14. Провинция моя
  • 15. Давай родная

Exact Audio Copy V0.99 prebeta 5 from 4. May 2009

Отчёт EAC об извлечении, выполненном 13. сентября 2012, 23:29

Триагрутрика / Вечерний Челябинск

Дисковод: Optiarc DVD RW AD-7260S Adapter: 2 ID: 0

Режим чтения : Достоверность
Использование точного потока : Да
Отключение кэша аудио : Да
Использование указателей C2 : Нет

Коррекция смещения при чтении : 48
Способность читать области Lead-in и Lead-out : Нет
Заполнение пропущенных сэмплов тишиной : Да
Удаление блоков с тишиной в начале и конце : Нет
При вычислениях CRC использовались нулевые сэмплы : Да
Интерфейс : Встроенный Win32-интерфейс для Win NT/2000
Обработка зазоров : Добавлено к предыдущему треку

Выходной формат : Пользовательский кодировщик
Выбранный битрейт : 320 kBit/s
Качество : Высокий
Добавление ID3-тэга : Да
Утилита сжатия : C:Program Filesfoobar2000encodersflac.exe
Дополнительные параметры : -V -8 -T "artist=%a" -T "title=%t" -T "album=%g" -T "date=%y" -T "tracknumber=%n" -T "genre=%m" %s

TOC извлечённого CD

Трек | Старт | Длительность | Начальный сектор | Конечный сектор
---------------------------------------------------------------------
1 | 0:00.00 | 3:46.25 | 0 | 16974
2 | 3:46.25 | 4:11.64 | 16975 | 35863
3 | 7:58.14 | 4:36.27 | 35864 | 56590
4 | 12:34.41 | 3:26.55 | 56591 | 72095
5 | 16:01.21 | 4:18.17 | 72096 | 91462
6 | 20:19.38 | 3:54.17 | 91463 | 109029
7 | 24:13.55 | 4:15.36 | 109030 | 128190
8 | 28:29.16 | 3:43.33 | 128191 | 144948
9 | 32:12.49 | 4:14.23 | 144949 | 164021
10 | 36:26.72 | 3:32.30 | 164022 | 179951
11 | 39:59.27 | 4:26.48 | 179952 | 199949
12 | 44:26.00 | 4:02.14 | 199950 | 218113
13 | 48:28.14 | 2:42.45 | 218114 | 230308
14 | 51:10.59 | 3:21.72 | 230309 | 245455
15 | 54:32.56 | 5:00.03 | 245456 | 267958

Трек 1

Имя файла C:Триагрутрика - Вечерний Челябинск (2012)�1. Рифмы из нового фонда.wav

Длина предзазора 0:00:02.00

Пиковый уровень 98.7 %
Качество трека 100.0 %
CRC теста BCB36C12
CRC копии BCB36C12
Трек не обнаружен в базе AccurateRip
Копирование... OK

Трек 2

Имя файла C:Триагрутрика - Вечерний Челябинск (2012)�2. Доказательстфло.wav

Пиковый уровень 95.3 %
Качество трека 100.0 %
CRC теста 39B576A6
CRC копии 39B576A6
Трек не обнаружен в базе AccurateRip
Копирование... OK

Трек 3

Имя файла C:Триагрутрика - Вечерний Челябинск (2012)�3. Маета.wav

Пиковый уровень 100.0 %
Качество трека 100.0 %
CRC теста 62F1956F
CRC копии 62F1956F
Трек не обнаружен в базе AccurateRip
Копирование... OK

Трек 4

Имя файла C:Триагрутрика - Вечерний Челябинск (2012)�4. Бит фит хит щит.wav

Пиковый уровень 100.0 %
Качество трека 100.0 %
CRC теста 1F19D58F
CRC копии 1F19D58F
Трек не обнаружен в базе AccurateRip
Копирование... OK

Трек 5

Имя файла C:Триагрутрика - Вечерний Челябинск (2012)�5. Олдскуловая сага.wav

Пиковый уровень 100.0 %
Качество трека 100.0 %
CRC теста CF524274
CRC копии CF524274
Трек не обнаружен в базе AccurateRip
Копирование... OK

Трек 6

Имя файла C:Триагрутрика - Вечерний Челябинск (2012)�6. Блэк дэй.wav

Пиковый уровень 100.0 %
Качество трека 100.0 %
CRC теста 9A544832
CRC копии 9A544832
Трек не обнаружен в базе AccurateRip
Копирование... OK

Трек 7

Имя файла C:Триагрутрика - Вечерний Челябинск (2012)�7. Биг сити лайф.wav

Пиковый уровень 99.9 %
Качество трека 100.0 %
CRC теста 195228F1
CRC копии 195228F1
Трек не обнаружен в базе AccurateRip
Копирование... OK

Трек 8

Имя файла C:Триагрутрика - Вечерний Челябинск (2012)�8. В моём городе звёзд....wav

Пиковый уровень 95.6 %
Качество трека 100.0 %
CRC теста 67A6EAF7
CRC копии 67A6EAF7
Трек не обнаружен в базе AccurateRip
Копирование... OK

Трек 9

Имя файла C:Триагрутрика - Вечерний Челябинск (2012)�9. Спасибо подзарядке.wav

Пиковый уровень 86.4 %
Качество трека 100.0 %
CRC теста D8742B8F
CRC копии D8742B8F
Трек не обнаружен в базе AccurateRip
Копирование... OK

Трек 10

Имя файла C:Триагрутрика - Вечерний Челябинск (2012)10. Живу.wav

Пиковый уровень 100.0 %
Качество трека 100.0 %
CRC теста 9A54A43F
CRC копии 9A54A43F
Трек не обнаружен в базе AccurateRip
Копирование... OK

Трек 11

Имя файла C:Триагрутрика - Вечерний Челябинск (2012)11. Осень весной.wav

Пиковый уровень 100.0 %
Качество трека 99.9 %
CRC теста DF5BF50B
CRC копии DF5BF50B
Трек не обнаружен в базе AccurateRip
Копирование... OK

Трек 12

Имя файла C:Триагрутрика - Вечерний Челябинск (2012)12. Хип-хоп уан лов.wav

Пиковый уровень 100.0 %
Качество трека 100.0 %
CRC теста 20FA6C40
CRC копии 20FA6C40
Трек не обнаружен в базе AccurateRip
Копирование... OK

Трек 13

Имя файла C:Триагрутрика - Вечерний Челябинск (2012)13. Алые паруса.wav

Пиковый уровень 100.0 %
Качество трека 100.0 %
CRC теста 6752E2C2
CRC копии 6752E2C2
Трек не обнаружен в базе AccurateRip
Копирование... OK

Трек 14

Имя файла C:Триагрутрика - Вечерний Челябинск (2012)14. Провинция моя.wav

Пиковый уровень 98.0 %
Качество трека 100.0 %
CRC теста 880334A5
CRC копии 880334A5
Трек не обнаружен в базе AccurateRip
Копирование... OK

Трек 15

Имя файла C:Триагрутрика - Вечерний Челябинск (2012)15. Давай родная.wav

Пиковый уровень 100.0 %
Качество трека 100.0 %
CRC теста 9C2A4E96
CRC копии 9C2A4E96
Трек не обнаружен в базе AccurateRip
Копирование... OK

Ни одного трека нет в базе AccurateRip

Ошибок не произошло

Конец отчёта

REM GENRE Hip-Hop
REM DATE 2012
REM DISCID C60DF40F
REM COMMENT "ExactAudioCopy v0.99pb5"
PERFORMER "Триагрутрика"
TITLE "Вечерний Челябинск"
FILE "01. Рифмы из нового фонда.wav" WAVE
TRACK 01 AUDIO
TITLE "Рифмы из нового фонда"
PERFORMER "Триагрутрика"
INDEX 01 00:00:00
FILE "02. Доказательстфло.wav" WAVE
TRACK 02 AUDIO
TITLE "Доказательстфло"
PERFORMER "Триагрутрика"
INDEX 01 00:00:00
FILE "03. Маета.wav" WAVE
TRACK 03 AUDIO
TITLE "Маета"
PERFORMER "Триагрутрика"
INDEX 01 00:00:00
FILE "04. Бит фит хит щит.wav" WAVE
TRACK 04 AUDIO
TITLE "Бит фит хит щит"
PERFORMER "Триагрутрика"
INDEX 01 00:00:00
FILE "05. Олдскуловая сага.wav" WAVE
TRACK 05 AUDIO
TITLE "Олдскуловая сага"
PERFORMER "Триагрутрика"
INDEX 01 00:00:00
FILE "06. Блэк дэй.wav" WAVE
TRACK 06 AUDIO
TITLE "Блэк дэй"
PERFORMER "Триагрутрика"
INDEX 01 00:00:00
FILE "07. Биг сити лайф.wav" WAVE
TRACK 07 AUDIO
TITLE "Биг сити лайф"
PERFORMER "Триагрутрика"
INDEX 01 00:00:00
FILE "08. В моём городе звёзд....wav" WAVE
TRACK 08 AUDIO
TITLE "В моём городе звёзд..."
PERFORMER "Триагрутрика"
INDEX 01 00:00:00
FILE "09. Спасибо подзарядке.wav" WAVE
TRACK 09 AUDIO
TITLE "Спасибо подзарядке"
PERFORMER "Триагрутрика"
INDEX 01 00:00:00
FILE "10. Живу.wav" WAVE
TRACK 10 AUDIO
TITLE "Живу"
PERFORMER "Триагрутрика"
INDEX 01 00:00:00
FILE "11. Осень весной.wav" WAVE
TRACK 11 AUDIO
TITLE "Осень весной"
PERFORMER "Триагрутрика"
INDEX 01 00:00:00
FILE "12. Хип-хоп уан лов.wav" WAVE
TRACK 12 AUDIO
TITLE "Хип-хоп уан лов"
PERFORMER "Триагрутрика"
INDEX 01 00:00:00
FILE "13. Алые паруса.wav" WAVE
TRACK 13 AUDIO
TITLE "Алые паруса"
PERFORMER "Триагрутрика"
INDEX 01 00:00:00
FILE "14. Провинция моя.wav" WAVE
TRACK 14 AUDIO
TITLE "Провинция моя"
PERFORMER "Триагрутрика"
INDEX 01 00:00:00
FILE "15. Давай родная.wav" WAVE
TRACK 15 AUDIO
TITLE "Давай родная"
PERFORMER "Триагрутрика"
INDEX 01 00:00:00

AUDIOCHECKER v2.0 beta (build 457) - by Dester - opdester@freemail.hu
~~~~~~~~~~~~~~~~~~~~~~~~~~~~~~~~~~
-=== DO NOT EDIT THIS FILE! ===-

Path: ...Триагрутрика - Вечерний Челябинск (2012)

01 -=- 01. Рифмы из нового фонда.flac -=- MPEG (95%)
02 -=- 02. Доказательстфло.flac -=- MPEG (95%)
03 -=- 03. Маета.flac -=- MPEG (92%)
04 -=- 04. Бит фит хит щит.flac -=- MPEG (95%)
05 -=- 05. Олдскуловая сага.flac -=- MPEG (95%)
06 -=- 06. Блэк дэй.flac -=- MPEG (95%)
07 -=- 07. Биг сити лайф.flac -=- MPEG (95%)
08 -=- 08. В моём городе звёзд....flac -=- MPEG (95%)
09 -=- 09. Спасибо подзарядке.flac -=- MPEG (95%)
10 -=- 10. Живу.flac -=- MPEG (95%)
11 -=- 11. Осень весной.flac -=- MPEG (95%)
12 -=- 12. Хип-хоп уан лов.flac -=- MPEG (95%)
13 -=- 13. Алые паруса.flac -=- MPEG (95%)
14 -=- 14. Провинция моя.flac -=- MPEG (95%)
15 -=- 15. Давай родная.flac -=- MPEG (95%)

Summary 5,20% CDDA

179412036
pb.wtf



Скачать Триагрутрика - Вечерний Челябинск 2012 через торрент http://i4.imageban.ru/out/2012/07/28/3987449d5f35a3102ce1ffa90d3bd191.jpg Скачать, смотреть онлайн Триагрутрика - Вечерний Челябинск 2012 бесплантно в хорошем качестве Треклист Рифмы из нового фонда Доказательстфло Маета Бит фит хит щит Олдскуловая сага Блэк дэй Биг сити лайф08. В ... 9.9 10 9
Info! Золотая раздача, скачанное не засчитывается.
Торрент: Зарегистрирован [2012-12-23 03:05] · скачан: 212 раз
Статус: √ проверено
Размер: 323 MB
Как cкачать? Как скачать Триагрутрика - Вечерний Челябинск 2012 через торрент | UTorrent

28-11-2019 20:33  

Отключить всю рекламу на сайте

24-10-2013 18:00 Триагрутрика - Вечерний Челябинск 2012 Скачать торрент  

То что нужно!!От души!pb.wtf



    Дорогой пользователь! Огромная просьба, поблагодарите релизера, оцените раздачу и оставьте свои комментарий, если Вы скачали Триагрутрика - Вечерний Челябинск 2012 через торрент бесплатно!
    Комментировать посты могут только пользователи прошедшие не сложную регистрацию
    Показать сообщения:    

    Триагрутрика - Вечерний Челябинск 2012 через торрент
    Скачать бесплатно Триагрутрика - Вечерний Челябинск 2012
    Триагрутрика - Вечерний Челябинск 2012 скачать торрент
    Триагрутрика - Вечерний Челябинск 2012 смотреть онлайн
    Cкачать фильм Триагрутрика - Вечерний Челябинск 2012 бесплатно
    Триагрутрика - Вечерний Челябинск 2012 скачать торрент в хорошем качестве
    Триагрутрика - Вечерний Челябинск 2012 смотреть онлайн бесплатно в хорошем качестве


    Вы не можете начинать темы
    Вы не можете отвечать на сообщения
    Вы не можете редактировать свои сообщения
    Вы не можете удалять свои сообщения
    Вы не можете голосовать в опросах
    Вы не можете прикреплять файлы к сообщениям
    Вы можете скачивать файлы