Ссылка на приватное зеркало нашего сайта всего за 1$. Внимание количество ограничено!!!

2 сезон

iTunes

1 сезон

1

iTunes

iTunes

iTunes

1 сезон

RePack

30

ИГРА 18+

pack

ВАЖНО

!!Акция!!

Alien_RageХит недели

RePack

MK11
pack

Забери бонус

RePack

jed

!!Акция!!

Alien_Rage

RePack

fifa19

RePack

Assassins Creed: Odyssey

RePack

NEED FOR SPEED™ PAYBACK

4 сезон

9 сезон

Бесстыжие 9 сезон

Все сериалы

все сериалы на PB.wtf

RePack

FAR CRY 5
  

Американец / The American (Антон Корбейн) [2010 г., драма, криминал, HDRip-AVC, DUB, лицензия] pb.wtf

Американец через торрент pb.wtf

Размер: 1.46 GB | Добавлен: 7 лет 10 мес. назад | Торрент скачан:194 раза
Скачать  

24-12-2012 07:46 Американец Скачать торрент  

Американец / The American

Год выпуска: 2010
Страна: США
Жанр: драма, криминал
Продолжительность: 01:44:55
Перевод: Дубляж, Лицензия

Режиссер: Антон Корбейн
Продюссер: Энн Кэри, Джордж Клуни, Джилл Грин
Сценарий: Роуэн Жоффе, Мартин Бут

Бюджет: $20 000 000
Премьера в мире: 1 сентября 2010



В ролях: Джордж Клуни, Виоланте Плачидо, Текла Рютен, Паоло Боначелли, Йохан Лейзен, Ирина Бьёрклунд, Филиппо Тими, Ларс Эльм, Джорджо Гобби, Сильвана Бози
Роли дублировали: Владимир Вихров, Татьяна Шитова, Рудольф Панков, Игорь Старосельцев, Ирина Киреева

Описание: После провала очередной операции и гибели любовницы профессиональный киллер Джек решает завершить свою карьеру. Остается последнее дело, заказанное ему таинственной женщиной, для выполнения которого он тайно едет в Италию и поселяется в маленьком городке, затерявшемся в живописных горах. Здесь неожиданно для себя самого Джек сближается с местным священником и влюбляется в красавицу Клару. Впервые в жизни раскрывается сердце человека, вынужденного таиться всю свою жизнь. Джек спокоен и счастлив настолько, что теряет бдительность...

Качество: HDRip-AVC
Формат: MKV
Видео кодек: H.264
Аудио кодек: AC3
Видео: 704x 296 (2,40:1),23,976fps, AVC MPEG-4 (H.264), ~1602 kbps avg, 0.321 bit/pixel
Аудио: AC3 Dolby Digital, 3/2 (L,C,R,l,r) + LFE ch, ~384 kbps avg
Автор рипа:

.
.
.

Общее
Уникальный идентификатор : 180828675738746575400009802115170517559 (0x880A560D54B934D9A7CE136818694237)
Полное имя : H:The American.mkv
Формат : Matroska
Версия формата : Version 2
Размер файла : 1,46 Гбайт
Продолжительность : 1 ч. 44 м.
Общий поток : 1987 Кбит/сек
Дата кодирования : UTC 2012-12-24 07:09:09
Программа кодирования : mkvmerge v5.6.0 ('Kenya Kane') built on Jun 29 2012 15:01:44
Библиотека кодирования : libebml v1.2.3 + libmatroska v1.3.0

Видео
Идентификатор : 1
Формат : AVC
Формат/Информация : Advanced Video Codec
Профиль формата : High@L4.1
Параметр CABAC формата : Да
Параметр ReFrames формата : 4 кадра
Идентификатор кодека : V_MPEG4/ISO/AVC
Продолжительность : 1 ч. 44 м.
Битрейт : 1602 Кбит/сек
Ширина : 704 пикселя
Высота : 296 пикселей
Соотношение сторон : 2,40:1
Частота кадров : 23,976 кадра/сек
Цветовое пространство : YUV
Субдискретизация насыщенности : 4:2:0
Битовая глубина : 8 бит
Тип развёртки : Прогрессивная
Бит/(Пиксели*Кадры) : 0.321
Размер потока : 1,15 Гбайт (79%)
Библиотека кодирования : x264 core 125 r2200 999b753
Настройки программы : cabac=1 / ref=3 / deblock=1:0:0 / analyse=0x3:0x133 / me=hex / subme=5 / psy=1 / psy_rd=1.00:0.00 / mixed_ref=0 / me_range=16 / chroma_me=1 / trellis=1 / 8x8dct=1 / cqm=0 / deadzone=21,11 / fast_pskip=1 / chroma_qp_offset=0 / threads=6 / lookahead_threads=1 / sliced_threads=0 / nr=0 / decimate=1 / interlaced=0 / bluray_compat=0 / constrained_intra=0 / bframes=16 / b_pyramid=2 / b_adapt=1 / b_bias=0 / direct=3 / weightb=0 / open_gop=0 / weightp=2 / keyint=250 / keyint_min=23 / scenecut=40 / intra_refresh=0 / rc_lookahead=40 / rc=2pass / mbtree=1 / bitrate=1602 / ratetol=1.0 / qcomp=0.60 / qpmin=0 / qpmax=69 / qpstep=4 / cplxblur=20.0 / qblur=0.5 / ip_ratio=1.40 / aq=1:1.00
Default : Да
Forced : Нет

Аудио
Идентификатор : 2
Формат : AC-3
Формат/Информация : Audio Coding 3
Расширение режима : CM (complete main)
Параметр Endianness формата : Big
Идентификатор кодека : A_AC3
Продолжительность : 1 ч. 44 м.
Вид битрейта : Постоянный
Битрейт : 384 Кбит/сек
Каналы : 6 каналов
Расположение каналов : Front: L C R, Side: L R, LFE
Частота : 48,0 КГц
Битовая глубина : 16 бит
Метод сжатия : С потерями
Размер потока : 288 Мбайт (19%)
Default : Да
Forced : Нет


Американец скачать торрент


pb.wtf



Скачать Американец через торрент http://pic.kartinco.top/images/1/1u2earqcqp.png Скачать фильм Американец через торрент бесплантно в хорошем качестве Описание: После провала очередной операции и гибели любовницы киллер Джек решает завершить свою карьеру. Остается ... 9.7 10 3
Info! Золотая раздача, скачанное не засчитывается.
Торрент: Зарегистрирован [2012-12-24 07:46] · скачан: 194 раз
Статус: √ проверено
Размер: 1.46 GB
Как cкачать? Как скачать Американец через торрент | qTorrent

% Раздел Тема Автор DL S | L
Фильмы (Blu-ray, BD-Remux, HDDVD) [ 20.82 GB ] Гадкий американец / The ugly american [1963 BDRemux 1080p] [USA Transfer] [VO] killermax2013 Скачать
1 | 0
Фильмы 2001-2005 [ 2.18 GB ] Тихий американец / The Quiet American [ 2001 Германия Австралия BDRip ] кэп Скачать
1 | 0
Фильмы 2010 [ 1.37 GB ] Американец / The American [2010 DVDRip][ лицензия ] SD Скачать
1 | 0
Фильмы (DVD фильмы) [ 4.36 GB ] Американец / American The [2010 ... DVD5] amv77 Скачать
1 | 0
Фильмы (Blu-ray, BD-Remux, HDDVD) [ 25.14 GB ] Американец / The American [2010 BDRemux 1080p] Shmel Скачать
1 | 0
Фильмы 2010 [ 2.18 GB ] Американец / The American [2010 BDRip] DUB + Orig tserkovnye Скачать
1 | 0
Фильмы 2010 [ 2.17 GB ] Американец / The American [2010 BDRip-AVC DUB лицензия] chack Скачать
1 | 0

28-11-2019 20:33  

Отключить всю рекламу на сайте

    Дорогой пользователь! Огромная просьба, поблагодарите релизера, оцените раздачу и оставьте свои комментарий, если Вы скачали Американец через торрент бесплатно! Внесите свою лепту в развитие PiratBit!
    Комментировать посты могут только пользователи прошедшие не сложную регистрацию
    Показать сообщения:    

    Американец через торрент
    Скачать бесплатно Американец
    Американец скачать торрент
    Американец смотреть онлайн
    Cкачать фильм Американец бесплатно
    Американец скачать торрент в хорошем качестве
    Американец смотреть онлайн бесплатно в хорошем качестве


    Вы не можете начинать темы
    Вы не можете отвечать на сообщения
    Вы не можете редактировать свои сообщения
    Вы не можете удалять свои сообщения
    Вы не можете голосовать в опросах
    Вы не можете прикреплять файлы к сообщениям
    Вы можете скачивать файлы