новый адрес
Ссылка на приватное зеркало всего за 1$. Внимание количество ограничено!!!

iTunes

1+1

iTunes

мы

WEB-DL

1

iTunes

Чернобыль

iTunes

Ральф против интернета

Лицензия

ПШазам

Лицензия

Оно 2

Лицензия

30
pack

Вам бонус

ВАЖНО

!!Акция!!

Alien_RageХит недели

RePack

Resident Evil 21

ИГРА 18+

pack

RePack

jed

!!Акция!!

Alien_Rage

RePack

fifa19

RePack

Assassins Creed: Odyssey

RePack

NEED FOR SPEED™ PAYBACK

3 сезон

9 сезон

Бесстыжие 9 сезон

Все сериалы

все сериалы на PB.wtf

RePack

FAR CRY 5
Ребята, катастрофически не хватает 1900р. для оплаты серверов за Октябрь (всвязи с блокировками трафик упал в 3 раза), 1-2р., выручайте.
  

Обезьянки / Apflickorna (Лиза Ашан) [2011 г., драма, спорт, DVDRip, MVO, лицензия] pb.wtf

Обезьянки через торрент pb.wtf

Размер: 1.47 GB | Добавлен: 6 лет 11 мес. назад | Торрент скачан:35 раз
Скачать  

24-12-2012 08:46 Обезьянки Скачать торрент  

Обезьянки / Apflickorna

Год выпуска: 2011
Страна: Швеция
Жанр: драма, спорт
Продолжительность: 01:23:21
Перевод: Профессиональный многоголосый, Лицензия
Субтитры: Отсутствуют

Режиссер: Лиза Ашан
Продюссер: Хелен Линдхольм, Дэниэл Андерссон, Кристина Аберг
Сценарий: Жозефина Адольфссон, Лиза Ашан

Мировой рейтинг IMDB 5.70 (1 124)


В ролях: Матильда Парадейзер, Линда Молин, Изабелла Линдквист, Сергей Меркусьев, Адам Лунгрен, Зигмунд Ховинд, Кевин Кайседо Вега, Назрин Пакхо, Мария Хедборг, Ингер Линдберг

Описание: Когда Эмма встретила Кассандру, то между ними начались отношения, полные физических и психологических проблем. Эмма готова пойти на все ради того, чтобы усвоить правила игры. Когда все границы пройдены, то ставки повышаются. Однако Эмме сложно противостоять опьяняющему чувству полного контроля.

Качество: DVDRip
Формат: AVI
Видео кодек: XviD
Аудио кодек: AC3
Видео: 720x304 (2.37:1), 23.976 fps, XviD build 50 ~2130 kbps avg, 0.41 bit/pixel
Аудио#1: 48 kHz, AC3 Dolby Digital, 2/0 (L,R) ch, ~384 kbps
Общее
Полное имя : F:ЗакачкиObezyanki.2011.DVDRip.avi
Формат : AVI
Формат/Информация : Audio Video Interleave
Размер файла : 1,47 Гбайт
Продолжительность : 1 ч. 23 м.
Общий поток : 2524 Кбит/сек
Программа кодирования : VirtualDubMod 1.5.10.3 | www.virtualdub-fr.org || (build 2550/release)
Библиотека кодирования : VirtualDubMod build 2550/release

Видео
Идентификатор : 0
Формат : MPEG-4 Visual
Профиль формата : Advanced Simple@L5
Параметр BVOP формата : 2
Параметр QPel формата : Нет
Параметр GMC формата : Без точки перехода
Параметр матрицы формата : Default (H.263)
Идентификатор кодека : XVID
Идентификатор кодека/Подсказка : XviD
Продолжительность : 1 ч. 23 м.
Битрейт : 2131 Кбит/сек
Ширина : 720 пикселей
Высота : 304 пикселя
Соотношение сторон : 2,35:1
Частота кадров : 23,976 кадра/сек
Цветовое пространство : YUV
Субдискретизация насыщенности : 4:2:0
Битовая глубина : 8 бит
Тип развёртки : Прогрессивная
Метод сжатия : С потерями
Бит/(Пиксели*Кадры) : 0.406
Размер потока : 1,24 Гбайт (84%)
Библиотека кодирования : XviD 1.2.1 (UTC 2008-12-04)

Аудио
Идентификатор : 1
Формат : AC-3
Формат/Информация : Audio Coding 3
Расширение режима : CM (complete main)
Идентификатор кодека : 2000
Продолжительность : 1 ч. 23 м.
Вид битрейта : Постоянный
Битрейт : 384 Кбит/сек
Каналы : 2 канала
Расположение каналов : Front: L R
Частота : 48,0 КГц
Битовая глубина : 16 бит
Метод сжатия : С потерями
Размер потока : 229 Мбайт (15%)
Выравнивание : Разделение по промежуткам
Продолжительность промежутка : 42 мс. (1,00 видеокадр)
Время предзагрузки промежутка : 500 мс.


Обезьянки скачать торрент


pb.wtf



Скачать Обезьянки через торрент http://i52.fastpic.ru/big/2012/1222/ca/5e4170f3987fdf844bb4ea62726761ca.jpg Скачать фильм Обезьянки через торрент бесплантно в хорошем качестве Описание: Когда Эмма встретила Кассандру, то между ними начались отношения, полные физических и психологических проблем. Эмма готова пойти ... 5 10 1
Info! Золотая раздача, скачанное не засчитывается.
Торрент: Зарегистрирован [2012-12-24 08:46] · скачан: 35 раз
Статус: √ проверено
Размер: 1.47 GB
Как cкачать? Как скачать Обезьянки через торрент | qTorrent

% Раздел Тема Автор DL S | L
Арт-хаус и авторское кино [ 1.37 GB ] Обезьянки / Apflickorna [2011 HDRip лицензия] SD Скачать
1 | 0

28-11-2019 20:33  

Отключить всю рекламу на сайте

05-02-2013 14:27 Обезьянки Скачать торрент  

А где же перевод???pb.wtf



    Дорогой пользователь! Огромная просьба, поблагодарите релизера, оцените раздачу и оставьте свои комментарий, если Вы скачали Обезьянки через торрент бесплатно! Внесите свою лепту в развитие PiratBit!
    Комментировать посты могут только пользователи прошедшие не сложную регистрацию
    Показать сообщения:    

    Обезьянки через торрент
    Скачать бесплатно Обезьянки
    Обезьянки скачать торрент
    Обезьянки смотреть онлайн
    Cкачать фильм Обезьянки бесплатно
    Обезьянки скачать торрент в хорошем качестве
    Обезьянки смотреть онлайн бесплатно в хорошем качестве


    Вы не можете начинать темы
    Вы не можете отвечать на сообщения
    Вы не можете редактировать свои сообщения
    Вы не можете удалять свои сообщения
    Вы не можете голосовать в опросах
    Вы не можете прикреплять файлы к сообщениям
    Вы можете скачивать файлы