1 сезон

1 сезон

iTunes

1

КиноПоиск HD

Кинопоиск HD

iTunes

13

1 сезон

RePack

30

Ultimate

ВАЖНО

ИГРА 18+

pack

RePack

MK11
pack

Легкие деньги

RePack

jed

RePack

fifa19

RePack

RDR2

RePack

NEED FOR SPEED™ PAYBACK

4 сезон

9 сезон

Бесстыжие 9 сезон

Все сериалы

все сериалы на PB.wtf

RePack

FAR CRY 5
  
Magnet ссылка

Вокруг света за 80 дней / Around the World in 80 Days (Фрэнк Корачи) [2004 г., боевик, мелодрама, комедия, приключения, семейный, вестерн, HDRip, DUB, лицензия] pb.wtf

Вокруг света за 80 дней через торрент pb.wtf

Размер: 1.45 GB | Добавлен: 8 лет 3 мес. назад | Торрент скачан:135 раз
Скачать  

26-12-2012 17:50 Вокруг света за 80 дней Скачать торрент  

Вокруг света за 80 дней / Around the World in 80 Days

Год выпуска: 2004
Страна: США
Жанр: боевик, мелодрама, комедия, приключения, семейный, вестерн
Продолжительность: 02:00:06
Перевод:Дубляж, Лицензия

Режиссер:Фрэнк Корачи
Продюссер: Филлис Алиа, Билл Бадалато, Стивен Баркер
Сценарий: Дэвид Н. Титчер, Дэвид Бенулло, Дэвид Эндрю Голдстин

Бюджет: $110 000 000
Премьера в мире: 13 июня 2004

Мировой рейтинг IMDB 5.70 (40 994)


В ролях:Джеки Чан, Стив Куган, Роберт Файф, Джим Броудбент, Иэн МакНис, Дэвид Райалл, Роджер Хэммонд, Адам Годли, Карен Мок, Ховард Купер, Сергей Дьячков, Александр Баргман, Юрий Лазарев, Сергей Паршин, Борис Смолкин

Описание: Эксцентричный лондонский изобретатель Филеас Фогг раскрыл тайны полетов, электричества и многие другие, но общество не принимает его, считая сумасшедшим. Фоггу очень хочется, чтобы к нему относились серьезно, и он заключает необычное пари с лордом Келвином, главой Королевской академии наук: он берется совершить путешествие вокруг земного шара не более чем за 80 дней.Вместе со своим лакеем Паспарту и жаждущей острых ощущений французской художницей Моник Фогг пускается в безумную, захватывающую кругосветную гонку по суше, морю и воздуху. Во время головокружительного путешествия наши герои попадают в самые экзотические уголки планеты. В пути их ждут многочисленные приключения и препятствия...

Качество: HDRip
Формат: AVI
Видео кодек: XviD
Аудио кодек: AC3
Видео:Xvid, 1340кбрs,720x304(2:35.1) в 23 976fps
Аудио#1: AC-3, 384кбрs,48.0 KHz, 16 bits,6 каналов






Полное имя : D:Vokrug_sveta_za_80_dnej.avi
Формат : AVI
Формат/Информация : Audio Video Interleave
Размер файла : 1.45 GiB
Продолжительность : 2h 0mn
Общий поток : 1 733 Kbps
Название фильма : Вокруг света за 80 дней / Around the World in 80 Days
Режиссёр : yrist
Программа кодирования : VirtualDubModRus 1.5.10.2 (build 2542/release)
Правообладатель : torrents.ru

Video
Идентификатор : 0
Формат : MPEG-4 Visual
Профиль формата : Advanced Simple@L5
Параметр BVOP формата : 1
Параметр QPel формата : No
Параметр GMC формата : No warppoints
Параметр матрицы формата : Custom
Идентификатор кодека : XVID
Идентификатор кодека/Подсказка : XviD
Продолжительность : 2h 0mn
Битрейт : 1 340 Kbps
Ширина : 720 pixels
Высота : 304 pixels
Соотношение сторон : 2.35:1
Частота кадров : 23.976 fps
Цветовое пространство : YUV
Субдискретизация насыщенности : 4:2:0
Битовая глубина : 8 bits
Тип развёртки : Progressive
Метод сжатия : Lossy
Бит/(Пиксели*Кадры) : 0.255
Размер потока : 1.12 GiB (77%)
Библиотека кодирования : XviD 1.2.1 (UTC 2008-12-04)

Audio
Идентификатор : 1
Формат : AC-3
Формат/Информация : Audio Coding 3
Расширение режима : CM (complete main)
Параметр Endianness формата : Big
Идентификатор кодека : 2000
Продолжительность : 2h 0mn
Вид битрейта : Constant
Битрейт : 384 Kbps
Каналы : 6 channels
Расположение каналов : Front: L C R, Side: L R, LFE
Частота : 48.0 KHz
Битовая глубина : 16 bits
Метод сжатия : Lossy
Размер потока : 330 MiB (22%)
Выравнивание : Split accross interleaves
Продолжительность промежутка : 42 ms (1.00 video frame)
Время предзагрузки промежутка : 500 ms


Вокруг света за 80 дней скачать торрент


pb.wtf



Скачать Вокруг света за 80 дней через торрент https://pic.kartinco.top/images/1/gnnr9ndffu.jpg Скачать фильм Вокруг света за 80 дней через торрент бесплантно в хорошем качестве Описание: Эксцентричный лондонский изобретатель Филеас Фогг раскрыл тайны полетов, электричества и многие другие, но общество не принимает ... 10 10 5
Info! Золотая раздача, скачанное не засчитывается.
Торрент: Зарегистрирован [2012-12-26 17:50] · скачан: 135 раз
Статус: √ проверено
Размер: 1.45 GB
Как cкачать? Как скачать Вокруг света за 80 дней через торрент | UTorrent

% Раздел Тема Автор DL S | L
Фильмы до 2000 г. [ 4.32 GB ] Вокруг света в 80 дней / Вокруг света за 80 дней / Around the World in Eighty Days [1956 экранизация Screener > DVD][Советская прокатная копия] killermax2013 Скачать
1 | 0
Фильмы [HD 720p, 1080p] (Хороший звук DUB, MVO) [ 6 GB ] Вокруг Света за 80 Дней / Around the World in 80 Days [2004 BDRip 1080p HEVC +AVO ] Мичман37 Скачать
1 | 0
Фильмы с авторской озвучкой [ 2.07 GB ] Вокруг Света за 80 Дней / Around the World in 80 Days [2004 BDRip] [AVO] killermax2013 Скачать
1 | 0
Фильмы [HD 720p, 1080p] (Хороший звук DUB, MVO) [ 15.3 GB ] Вокруг света за 80 дней / Around the World in 80 Days [2004 BDRip 1080p by msltel] DUB DVO msltel Скачать
1 | 0
Фильмы [HD 720p, 1080p] (Хороший звук DUB, MVO) [ 4.88 GB ] Вокруг света за 80 дней / Around the World in 80 Days [2004 BDRip 720p by msltel] DUB DVO msltel Скачать
1 | 0
Мультсериалы [ 4.74 GB ] Вокруг света за 80 дней / Around the world in eighty days/16 серий из 16 [1972 DVDRip] alexx Скачать
1 | 0
Фильмы 2001-2005 [ 2.19 GB ] Вокруг света за 80 дней / Around the World in 80 Days [2004 Германия Ирландия BDRip ] _KaisiK_ Скачать
1 | 0

28-11-2019 20:33  

Отключить всю рекламу на сайте

    Дорогой пользователь! Огромная просьба, поблагодарите релизера, оцените раздачу и оставьте свои комментарий, если Вы скачали Вокруг света за 80 дней через торрент бесплатно! Внесите свою лепту в развитие PiratBit!
    Комментировать посты могут только пользователи прошедшие не сложную регистрацию
    Показать сообщения:    

    Вокруг света за 80 дней через торрент
    Скачать бесплатно Вокруг света за 80 дней
    Вокруг света за 80 дней скачать торрент
    Вокруг света за 80 дней смотреть онлайн
    Cкачать фильм Вокруг света за 80 дней бесплатно
    Вокруг света за 80 дней скачать торрент в хорошем качестве
    Вокруг света за 80 дней смотреть онлайн бесплатно в хорошем качестве


    Вы не можете начинать темы
    Вы не можете отвечать на сообщения
    Вы не можете редактировать свои сообщения
    Вы не можете удалять свои сообщения
    Вы не можете голосовать в опросах
    Вы не можете прикреплять файлы к сообщениям
    Вы можете скачивать файлы