MEGA SALE -50% FORZA HORIZON 4 ULTIMATE+ВСЕ DLC+ОНЛАЙН всего за 599р. 299 руб. (супер цена). Внимание количество ограничено!!!

iTunes

1+1

iTunes

мы

iTunes

1

iTunes

Чернобыль

iTunes

Ральф против интернета

Лицензия

ПШазам

Лицензия

Игра престолов

Лицензия

30
pack

ВАЖНО

!!Акция!!

Alien_RageХит недели

RePack

Resident Evil 21

ИГРА 18+

pack

RePack

Metro:Exodus

!!Акция!!

Alien_Rage

RePack

fifa19

RePack

Assassins Creed: Odyssey

RePack

NEED FOR SPEED™ PAYBACK

3 сезон

9 сезон

Бесстыжие 9 сезон

Все сериалы

все сериалы на PB.wtf

RePack

FAR CRY 5
Ребята, катастрофически не хватает 7730р. для оплаты серверов за АВГУСТ (всвязи с блокировками трафик упал в 3 раза), 1-2р., выручайте.
  

Ночь в музее 2 / Night at the Museum: Battle of the Smithsonian (Шон Леви) [2009 г., фэнтези, комедия, приключения, семейный, DVDRip, DUB, лицензия] pb.wtf

Ночь в музее 2 через торрент pb.wtf

Размер: 1.37 GB | Добавлен: 6 лет 8 мес. назад | Торрент скачан:524 раза
Скачать  

28-12-2012 13:01 Ночь в музее 2 Скачать торрент  

Ночь в музее 2 / Night at the Museum: Battle of the Smithsonian

Год выпуска: 2009
Страна: США
Жанр: фэнтези, комедия, приключения, семейный
Продолжительность: 01:40:24
Перевод: Дубляж, Лицензия

Режиссер: Шон Леви
Продюссер: Майкл Барнатан, Крис Коламбус, Шон Леви
Сценарий: Роберт Бен Гарант, Томас Леннон

Бюджет: $150 000 000
Сборы в сша: $177 243 721
сборы в россии: $11 022 954
Сборы в мире : $413 106 170
Премьера в мире: 14 мая 2009

зрителям, достигшим 12 лет
Мировой рейтинг IMDB 5.90 (61 331)


В ролях: Бен Стиллер, Эми Адамс, Оуэн Уилсон, Хэнк Азария, Робин Уильямс, Кристофер Гест, Ален Шаба, Стив Куган, Джон Бернтал, Билл Хэйдер, Александр Баргман, Ирина Горячева, Анатолий Петров, Аркадий Волгин, Борис Улитин

Описание: Экспонаты Музея Естественной истории живут обычной жизнью. По коридорам бегает скелет динозавра, герои гражданской войны сражаются друг с другом, древние люди добывают огонь, миниатюрные ковбои выясняют отношения с древними Римлянами, Теодор Рузвельт философствует о смысле жизни и ухаживает за индианкой. Никто из этой разношерстной компании даже не представляет, что скоро им предстоит познакомиться с новыми экспонатами. Среди них окажется и та, что разобьет сердце охраннику Ларри.

Качество: DVDRip
Формат: AVI
Видео кодек: XviD
Аудио кодек: AC3
Видео: Xvid,1550кбрs,704x288(2. 40:1) в 25 000 fps
Аудио#1: AC-3, 384кбрs,48.0 KHz, 16 bits,6 каналов





Полное имя : D:Noch.v.muzee.2.2009.D.DVDRip..avi
Формат : AVI
Формат/Информация : Audio Video Interleave
Размер файла : 1.37 GiB
Продолжительность : 1h 40mn
Общий поток : 1 949 Kbps
Название фильма : Night at the Museum: Battle of the Smithsonian (2009)
Режиссёр : ELEKTRI4KA
Программа кодирования : VirtualDubMod 1.5.10.2 (build 2540/release)

Video
Идентификатор : 0
Формат : MPEG-4 Visual
Профиль формата : Advanced Simple@L5
Параметр BVOP формата : 3
Параметр QPel формата : No
Параметр GMC формата : No warppoints
Параметр матрицы формата : Default (H.263)
Идентификатор кодека : XVID
Идентификатор кодека/Подсказка : XviD
Продолжительность : 1h 40mn
Битрейт : 1 556 Kbps
Ширина : 704 pixels
Высота : 288 pixels
Соотношение сторон : 2.40:1
Частота кадров : 25.000 fps
Цветовое пространство : YUV
Субдискретизация насыщенности : 4:2:0
Битовая глубина : 8 bits
Тип развёртки : Progressive
Метод сжатия : Lossy
Бит/(Пиксели*Кадры) : 0.307
Размер потока : 1.09 GiB (80%)
Библиотека кодирования : XviD 1.2.0.dev47 (UTC 2006-11-01)

Audio
Идентификатор : 1
Формат : AC-3
Формат/Информация : Audio Coding 3
Расширение режима : CM (complete main)
Параметр Endianness формата : Big
Идентификатор кодека : 2000
Продолжительность : 1h 40mn
Вид битрейта : Constant
Битрейт : 384 Kbps
Каналы : 6 channels
Расположение каналов : Front: L C R, Side: L R, LFE
Частота : 48.0 KHz
Битовая глубина : 16 bits
Метод сжатия : Lossy
Размер потока : 276 MiB (20%)
Выравнивание : Split accross interleaves
Продолжительность промежутка : 40 ms (1.00 video frame)
Время предзагрузки промежутка : 500 ms


Ночь в музее 2 скачать торрент


pb.wtf



Скачать Ночь в музее 2 через торрент http://pic.kartinco.top/images/1/wubhfjqyhn.jpg Скачать фильм Ночь в музее 2 через торрент бесплантно в хорошем качестве Описание: Экспонаты Музея Естественной истории живут обычной жизнью. По коридорам бегает скелет динозавра, герои гражданской войны ... 9.5 10 10
Info! Золотая раздача, скачанное не засчитывается.
Торрент: Зарегистрирован [2012-12-28 13:01] · скачан: 524 раз
Статус: √ проверено
Размер: 1.37 GB
Как cкачать? Как скачать Ночь в музее 2 через торрент | qTorrent

% Раздел Тема Автор DL S | L
Фильмы [HD 720p, 1080p] (Хороший звук DUB, MVO) [ 4.65 GB ] Ночь в музее 2 / Night at the Museum: Battle of the Smithsonian [2009 BDRip 1080p HEVC ] Мичман37 Скачать
1 | 0
Фильмы [HD 720p, 1080p] (Хороший звук DUB, MVO) [ 14.48 GB ] Ночь в музее 2 / Night at the Museum: Battle of the Smithsonian [2009 1080p] DUB den7z8 Скачать
1 | 0
Фильмы [HD 720p, 1080p] (Хороший звук DUB, MVO) [ 2.19 GB ] Ночь в музее 2 / Night at the Museum: Battle of the Smithsonian [2009 HDRip-AVC] [720p] killermax2013 Скачать
1 | 0
Фильмы [HD 720p, 1080p] (Хороший звук DUB, MVO) [ 7.94 GB ] Ночь в музее 2 / Night at the Museum: Battle of the Smithsonian [2009 BDRip 1080p + + Оригинал] GEKADOL Скачать
1 | 0
Фильмы 2009 [ 1.37 GB ] Ночь в музее 2 / Night at the Museum: Battle of the Smithsonian [2009 DVDRip лицензия] B@rt Скачать
1 | 0
Фильмы 2009 [ 1.45 GB ] Ночь в музее 2 / Night at the Museum: Battle of the Smithsonian [2009 ... HDRip] Venxxx Скачать
1 | 0


Последний раз редактировалось: ALIK1989 (2012-12-28 16:35), всего редактировалось 1 раз


>> Регистрируемся здесь <<






Отзывы и комментарии о схеме читаем и пишем здесь: ---> Отзывы и комментарии о схеме

Новые благодарочки в телеграм довольных пользователей:
скриншот   скриншот   скриншот   скриншот   скриншот

28-12-2012 16:03 Ночь в музее 2 Скачать торрент  

Автор поправь)
Бюджет: $150 000 000
Сборы в сша: $177 243 721
общый сборы: $413 106 170pb.wtf



    Дорогой пользователь! Огромная просьба, поблагодарите релизера, оцените раздачу и оставьте свои комментарий, если Вы скачали Ночь в музее 2 через торрент бесплатно! Внесите свою лепту в развитие PiratBit!
    Комментировать посты могут только пользователи прошедшие не сложную регистрацию
    Показать сообщения:    

    Ночь в музее 2 через торрент
    Скачать бесплатно Ночь в музее 2
    Ночь в музее 2 скачать торрент
    Ночь в музее 2 смотреть онлайн
    Cкачать фильм Ночь в музее 2 бесплатно
    Ночь в музее 2 скачать торрент в хорошем качестве
    Ночь в музее 2 смотреть онлайн бесплатно в хорошем качестве


    Вы не можете начинать темы
    Вы не можете отвечать на сообщения
    Вы не можете редактировать свои сообщения
    Вы не можете удалять свои сообщения
    Вы не можете голосовать в опросах
    Вы не можете прикреплять файлы к сообщениям
    Вы можете скачивать файлы