новый адрес
Ссылка на приватное зеркало всего за 1$. Внимание количество ограничено!!!

iTunes

1+1

iTunes

мы

WEB-DL

1

iTunes

Чернобыль

iTunes

Ральф против интернета

Лицензия

ПШазам

Лицензия

Оно 2

Лицензия

30
pack

Вам бонус

ВАЖНО

!!Акция!!

Alien_RageХит недели

RePack

Resident Evil 21

ИГРА 18+

pack

RePack

jed

!!Акция!!

Alien_Rage

RePack

fifa19

RePack

Assassins Creed: Odyssey

RePack

NEED FOR SPEED™ PAYBACK

3 сезон

9 сезон

Бесстыжие 9 сезон

Все сериалы

все сериалы на PB.wtf

RePack

FAR CRY 5
Ребята, катастрофически не хватает 1900р. для оплаты серверов за Октябрь (всвязи с блокировками трафик упал в 3 раза), 1-2р., выручайте.
  

Ирония судьбы, или С легким паром! (Эльдар Рязанов) [1975 г., мелодрама, лирическая комедия, DVD9, Оригинал] pb.wtf

Скачать  

29-12-2012 13:59 Ирония судьбы, или С легким паром! Скачать торрент  

Год выпуска: 1975
Страна: СССР
Жанр: мелодрама, лирическая комедия
Продолжительность: 03:04:11
Перевод: Оригинал

Режиссер
Эльдар Рязанов
В ролях
Андрей Мягков, Барбара Брыльска (озвучание - Валентина Талызина), Юрий Яковлев, Ольга Науменко, Любовь Добржанская, Георгий Бурков, Александр Ширвиндт (также текст от автора), Александр Белявский, Лия Ахеджакова, Валентина Талызина, Любовь Соколова, Готлиб Ронинсон, Эльдар Рязанов, Елена Наумкина, Николай Погодин, Александр Постников, Александр Беляев

Описание:
31 декабря, в аккурат под Новый год, московский врач Женя Лукашин со своими друзьями пошел в баню. Ну, традиция у них такая была - попариться перед Новым годом. Вымылись, выпили... Один из них должен был лететь после этого в Ленинград, но кто именно, они уже не вспомнили. В самолет в бессознательном состоянии запихнули Женю, которого дожидалась после бани невеста в московской квартире. Прилетев в Ленинград, Женя назвал таксисту свой московский адрес (оказывается, в Ленинграде тоже есть 3-я улица Строителей), вошел в дом, открыл дверь своим ключом (который идеально подошел к чужой двери - вот вам советское типовое строительство!) и лёг отсыпаться. В это время домой вернулась хозяйка ленинградской квартиры, намереваясь встретить праздник вместе со своим женихом. Ну, что было дальше - вы все (или почти все -) знаете...

Дополнительные материалы:
Краткая биография и фильмография Эмиля Брагинского, Барбары Брыльска, Андрея Мягкова, Владимира Нахабцева, Эльдара Рязанова, Микаэла Таривердиева и Юрия Яковлева.
Качество:
DVD9
Видеокодек: MPEG2 Аудиокодек: AC3
Видео:
5075 Кбит/сек, 720*576 (4:3), в 25,0000 кадров/сек, MPEG Video (PAL) (Version 2) (Main@Main) CustomMatrix / BVOP)
Аудиопоток №1:
224 Кбит/сек, 48,0 Кгц, 16 бит, 1 канал, AC-3 (DVD-Video)
Аудиопоток №2:
448 Кбит/сек, 48,0 Кгц, 16 бит, 6 каналов, AC-3 (DVD-Video)
скриншот   скриншот   скриншот  
скриншот   скриншот   скриншот   скриншот  
скриншот   скриншот   скриншот   скриншот   скриншот  
Title: Ирония судьбы
Size: 7.81 Gb ( 8 185 311,00 KBytes ) - DVD-9
Enabled regions: 1, 2, 3, 4, 5, 6

VTS_01 :
Play Length: 00:00:51
Video: PAL 4:3 (720x576) VBR

VTS_02 :
Play Length: 01:39:51
Video: PAL 4:3 (720x576) VBR
Audio:
Russian (Dolby AC3, 1 ch)
Russian (Dolby AC3, 6 ch)

VTS_03 :
Play Length: 01:24:20
Video: PAL 4:3 (720x576) VBR
Audio:
Russian (Dolby AC3, 1 ch)
Russian (Dolby AC3, 6 ch)
Формат : MPEG-PS
Размер файла : 1024 Мбайт
Продолжительность : 24 м.
Общий поток : 5856 Кбит/сек

Видео
Идентификатор : 224 (0xE0)
Формат : MPEG Video
Версия формата : Version 2
Профиль формата : Main@Main
Параметр BVOP формата : Да
Параметр матрицы формата : Выборочная
Параметр GOP формата : M=3, N=15
Продолжительность : 24 м.
Битрейт : 5075 Кбит/сек
Ширина : 720 пикселей
Высота : 576 пикселей
Соотношение сторон : 4:3
Частота кадров : 25,000 кадров/сек
Стандарт вещания : PAL
Цветовое пространство : YUV
Субдискретизация насыщенности : 4:2:0
Битовая глубина : 8 бит
Тип развёртки : Чересстрочная
Порядок развёртки : Верхнее поле первое
Метод сжатия : С потерями
Бит/(Пиксели*Кадры) : 0.490
Размер потока : 886 Мбайт (87%)

Аудио #1
Идентификатор : 189 (0xBD)-128 (0x80)
Формат : AC-3
Формат/Информация : Audio Coding 3
Расширение режима : CM (complete main)
Параметр Endianness формата : Big
Режим смешивания : DVD-Video
Продолжительность : 24 м.
Вид битрейта : Постоянный
Битрейт : 224 Кбит/сек
Каналы : 1 канал
Расположение каналов : Front: C
Частота : 48,0 КГц
Битовая глубина : 16 бит
Метод сжатия : С потерями
Задержка видео : -776 мс.
Размер потока : 39,2 Мбайт (4%)

Аудио #2
Идентификатор : 189 (0xBD)-129 (0x81)
Формат : AC-3
Формат/Информация : Audio Coding 3
Расширение режима : CM (complete main)
Параметр Endianness формата : Big
Режим смешивания : DVD-Video
Продолжительность : 24 м.
Вид битрейта : Постоянный
Битрейт : 448 Кбит/сек
Каналы : 6 каналов
Расположение каналов : Front: L C R, Side: L R, LFE
Частота : 48,0 КГц
Битовая глубина : 16 бит
Метод сжатия : С потерями
Задержка видео : -872 мс.
Размер потока : 78,3 Мбайт (8%)


Ирония судьбы, или С легким паром! скачать торрент


pb.wtf



Скачать
Чтобы иметь возможность скачивать с Торрент Трекера, нужно Зарегистрироваться

Как скачивать  ·  Рейтинг и ограничения



Последний раз редактировалось: dotWizard (2012-12-29 16:39), всего редактировалось 4 раз(а)

28-11-2019 20:33  

Отключить всю рекламу на сайте

29-12-2012 14:05 Ирония судьбы, или С легким паром! Скачать торрент  

надо посмотреть,говорят интересный фильм))))))))pb.wtf



29-12-2012 14:07 Ирония судьбы, или С легким паром! Скачать торрент  

фильм супер спасибоpb.wtf



29-12-2012 14:33 Ирония судьбы, или С легким паром! Скачать торрент  

Sanmaster писал(а):

надо посмотреть,говорят интересный фильм))))))))

ТОЛЬКО не надо делать вид буд-то ты не смотрел! pb.wtf



29-12-2012 15:32 Ирония судьбы, или С легким паром! Скачать торрент  

Добавь DVDInfo, Аудио кодек и Видео кодек.
Укажи список Доп материалов.

Сэмпл заливаем на multi-up.com.
pb.wtf



29-12-2012 15:45 Ирония судьбы, или С легким паром! Скачать торрент  

Попробуйте догадаться почему этот фильм хорош))) pb.wtf



    Дорогой пользователь! Огромная просьба, поблагодарите релизера, оцените раздачу и оставьте свои комментарий, если Вы скачали Ирония судьбы, или С легким паром! через торрент бесплатно! Внесите свою лепту в развитие PiratBit!
    Комментировать посты могут только пользователи прошедшие не сложную регистрацию
    Показать сообщения:    

    Ирония судьбы, или С легким паром! через торрент
    Скачать бесплатно Ирония судьбы, или С легким паром!
    Ирония судьбы, или С легким паром! скачать торрент
    Ирония судьбы, или С легким паром! смотреть онлайн
    Cкачать фильм Ирония судьбы, или С легким паром! бесплатно
    Ирония судьбы, или С легким паром! скачать торрент в хорошем качестве
    Ирония судьбы, или С легким паром! смотреть онлайн бесплатно в хорошем качестве


    Вы не можете начинать темы
    Вы не можете отвечать на сообщения
    Вы не можете редактировать свои сообщения
    Вы не можете удалять свои сообщения
    Вы не можете голосовать в опросах
    Вы не можете прикреплять файлы к сообщениям
    Вы не можете скачивать файлы