2 сезон

iTunes

MVO

1

2 сезон

iTunes

iTunes

1 сезон

RePack

30

Новинка

ВАЖНО

ИГРА 18+

pack

RePack

MK11
pack

Легкие деньги

RePack

jed

RePack

fifa19

RePack

RDR2

RePack

NEED FOR SPEED™ PAYBACK

4 сезон

9 сезон

Бесстыжие 9 сезон

Все сериалы

все сериалы на PB.wtf

RePack

FAR CRY 5

Anonymous, добрый день, мы не успеваем собрать деньги на оплату серверов за декабрь и январь, помогите нам пожалуйста в это трудное время. В качестве благодарности мы отключим Вам всю рекламу на сайте (укажите свой ник в строку Ваше имя)!

×
  
Magnet ссылка

Самолетики (Тони Тэнг / Tony Tang) [2012 г., мультфильм, DVD5] R5 pb.wtf

Самолетики через торрент pb.wtf

Размер: 3.64 GB | Добавлен: 8 лет 1 мес. назад | Торрент скачан:259 раз
Скачать  

03-12-2012 21:15 Самолетики Скачать торрент  


Самолетики
Страна: США, Гонконг
Студия: Limelight Animation Studios, T-Films
Жанр: мультфильм
Год выпуска: 2012
Мировая премьера: 22 апреля 2012
Российская премьера: 11 октября 2012, 3D
Дата выхода DVD: 6 декабря 2012
Продолжительность: 01:17:40
Перевод: Профессиональный (дублированный) [Лицензия]
Cубтитры: нет
Оригинальная аудиодорожка: нет
Режиссер: Тони Тэнг / Tony Tang
Роли озвучивали: Джон С. Флинн, Хезер Гордон, Аарон Кребс
Описание: В большой и дружной команде самолетов маленький Тинни никак не может добиться признания. Чтобы в глазах окружающих стать настоящим героем, он, наперекор Капитану Бену, отправляется в одиночку спасать жителей города от пожара. Жизнь Тинни оказывается под угрозой, но его спасает Капитан Бен ценой своей жизни.
Чувство вины и страх снова подняться в воздух заставляет Тинни покинуть команду и отправиться работать на шахту. И только жуткий пожар, вспыхнувший в шахте, разбудил в Тинни старые инстинкты. Спасая своих друзей, он осознает свое истинное призвание и возвращается к команде пожарных самолетов, преодолевая свой страх высоты ради безопасности родного города.

Бонусы: нет

Релиз группы:
Качество: DVD5 R5
Формат: DVD-Video
Видео кодек: MPEG2
Аудио кодек: AC3
Видео: PAL 16:9 (720x576(0.614)) MPEG Video, 25,000 кадр/сек, 6369 Кбит/сек
Аудио: Russian (Dolby AC3, 6 ch) 448 Кбит/сек, 48,0 КГц



Title: Aerotachki.2012.DVD5
Size: 3.64 Gb ( 3 816 748,00 KBytes ) - DVD-5
Enabled regions: 1, 2, 3, 4, 5, 6, 7, 8

VTS_01 :
Play Length: 01:17:40
Video: PAL 16:9 (720x576) VBR, Auto Letterboxed
Audio:
Russian (Dolby AC3, 6 ch)

VTS_02 :
Play Length: 00:00:08
Video: PAL 4:3 (720x576) VBR

VTS_03 :
Play Length: 00:00:21
Video: PAL 16:9 (720x576) VBR, Auto Letterboxed
Audio:
English (Dolby AC3, 2 ch)

VTS_04 :
Play Length: 00:00:34
Video: PAL 16:9 (720x576) VBR, Auto Letterboxed
Audio:
English (Dolby AC3, 2 ch)

* Menus Information *

VIDEO_TS Menu
Video:
NTSC 4:3 (720x480) VBR
Auto Pan&Scan, Auto Letterboxed
Russian Language Unit :
Title Menu

VTS_01 Menu
Video:
PAL 16:9 (720x576) VBR
Auto Letterboxed
Audio:
Not specified (Dolby AC3, 2 ch)
Russian Language Unit :
Root Menu
Chapter (PTT) Menu

VTS_02 Menu
Video:
NTSC 4:3 (720x480) VBR
Auto Pan&Scan, Auto Letterboxed
Language Unit :
Chapter (PTT) Menu

VTS_03 Menu
Video:
NTSC 4:3 (720x480) VBR
Auto Pan&Scan, Auto Letterboxed
Language Unit :
Chapter (PTT) Menu

VTS_04 Menu
Video:
NTSC 4:3 (720x480) VBR
Auto Pan&Scan, Auto Letterboxed
Language Unit :
Chapter (PTT) Menu
Общее
Полное имя : J:Новинки 2012Aerotachki.2012.DVD5VIDEO_TSVTS_01_1.VOB
Формат : MPEG-PS
Размер файла : 1024 Мбайт
Продолжительность : 20 м.
Режим общего битрейта : Переменный
Общий поток : 6955 Кбит/сек

Видео
Идентификатор : 224 (0xE0)
Формат : MPEG Video
Версия формата : Version 2
Профиль формата : Main@Main
Параметр BVOP формата : Да
Параметр матрицы формата : Выборочная
Параметр GOP формата : Variable
Продолжительность : 20 м.
Вид битрейта : Переменный
Битрейт : 6369 Кбит/сек
Максимальный битрейт : 8000 Кбит/сек
Ширина : 720 пикселей
Высота : 576 пикселей
Соотношение сторон : 16:9
Частота кадров : 25,000 кадров/сек
Стандарт вещания : PAL
Цветовое пространство : YUV
Субдискретизация насыщенности : 4:2:0
Битовая глубина : 8 бит
Тип развёртки : Чересстрочная
Порядок развёртки : Верхнее поле первое
Метод сжатия : С потерями
Бит/(Пиксели*Кадры) : 0.614
Размер потока : 938 Мбайт (92%)

Аудио
Идентификатор : 189 (0xBD)-128 (0x80)
Формат : AC-3
Формат/Информация : Audio Coding 3
Расширение режима : CM (complete main)
Параметр Endianness формата : Big
Режим смешивания : DVD-Video
Продолжительность : 20 м.
Вид битрейта : Постоянный
Битрейт : 448 Кбит/сек
Каналы : 6 каналов
Расположение каналов : Front: L C R, Side: L R, LFE
Частота : 48,0 КГц
Битовая глубина : 16 бит
Метод сжатия : С потерями
Размер потока : 65,9 Мбайт (6%)










pb.wtf



Скачать Самолетики через торрент http://i49.fastpic.ru/big/2012/1203/64/236170680a8024e06027aecdca5cee64.jpg Скачать фильм Самолетики через торрент бесплантно в хорошем качестве Описание: В большой и дружной команде самолетов маленький Тинни никак не может добиться признания. Чтобы в глазах окружающих стать ... 10 10 3
Info! Золотая раздача, скачанное не засчитывается.
Торрент: Зарегистрирован [2012-12-04 00:11] · скачан: 259 раз
Статус: √ проверено
Размер: 3.64 GB
Как cкачать? Как скачать Самолетики через торрент | UTorrent

28-11-2019 20:33  

Отключить всю рекламу на сайте

04-12-2012 04:02 Самолетики Скачать торрент  

мульт такое УГ....pb.wtf



13-12-2012 15:24 Самолетики Скачать торрент  

у меня ребенок посмотрел от начала и до конца без остановкиpb.wtf



    Дорогой пользователь! Огромная просьба, поблагодарите релизера, оцените раздачу и оставьте свои комментарий, если Вы скачали Самолетики через торрент бесплатно! Внесите свою лепту в развитие PiratBit!
    Комментировать посты могут только пользователи прошедшие не сложную регистрацию
    Показать сообщения:    

    Самолетики через торрент
    Скачать бесплатно Самолетики
    Самолетики скачать торрент
    Самолетики смотреть онлайн
    Cкачать фильм Самолетики бесплатно
    Самолетики скачать торрент в хорошем качестве
    Самолетики смотреть онлайн бесплатно в хорошем качестве


    Вы не можете начинать темы
    Вы не можете отвечать на сообщения
    Вы не можете редактировать свои сообщения
    Вы не можете удалять свои сообщения
    Вы не можете голосовать в опросах
    Вы не можете прикреплять файлы к сообщениям
    Вы можете скачивать файлы