Ссылка на приватное зеркало всего за 1$. Внимание количество ограничено!!!

iTunes

1+1

iTunes

мы

WEB-DL

1

iTunes

Чернобыль

iTunes

Ральф против интернета

Лицензия

ПШазам

Лицензия

Оно 2

Лицензия

30
pack

Вам бонус

ВАЖНО

!!Акция!!

Alien_RageХит недели

RePack

Resident Evil 21

ИГРА 18+

pack

RePack

jed

!!Акция!!

Alien_Rage

RePack

fifa19

RePack

Assassins Creed: Odyssey

RePack

NEED FOR SPEED™ PAYBACK

3 сезон

9 сезон

Бесстыжие 9 сезон

Все сериалы

все сериалы на PB.wtf

RePack

FAR CRY 5
Ребята, катастрофически не хватает 1900р. для оплаты серверов за Октябрь (всвязи с блокировками трафик упал в 3 раза), 1-2р., выручайте.
  

Полицейская история: Квадрология / Ging chat goo si: Quadrilogy (Джеки Чан, Стэнли Тонг,) [1985, 1988, 1992, 1996 г., боевик, триллер, комедия, криминал, DVDRip, Hdrip MVO, закадровый, Любительский (двухголосый)] pb.wtf

Полицейская история: Квадрология через торрент pb.wtf

Размер: 5.74 GB | Добавлен: 6 лет 11 мес. назад | Торрент скачан:189 раз
Скачать  

30-12-2012 08:13 Полицейская история: Квадрология Скачать торрент  

Полицейская история / Ging chat goo si
Год выпуска: 1985
Страна: Гонконг
Жанр: боевик, триллер, комедия, криминал
Продолжительность: 01:39:56
Перевод: Профессиональный многоголосый, закадровый
Режиссер: Джеки Чан
Продюссер: Леонард Хо, Рэймонд Чоу
Сценарий: Эдвард Танг
Премьера в мире: 14 декабря 1985

В ролях: Джеки Чан, Бриджит Лин, Мэгги Чун, Квок-Хун Лам, Билл Тун, Юэнь Чор, Чарли Чо, Чи-Вин Лау, Хак-Он Фанг, Хин Йинг Кэм...
Описание: В результате удачно проведенной облавы в руки полиции попадает босс наркомафии Чи. Одному из полицейских, Кевину, принимавшему непосредственное участие в аресте, поручают охрану секретарши преступника, которая проходит по делу в качестве главного свидетеля. Но в день суда она исчезает. Только разыскав девушку и арестовав Чи, Кевин сможет снять с себя подозрение в соучастии…
Качество: HDRip
Формат: AVI
Видео кодек: XviD
Аудио кодек: AC3
Видео: 720x304 (2.37:1), 23.976 fps, XviD build 50 ~1627 kbps avg, 0.31 bit/pixel
Аудио: 48 kHz, AC3 Dolby Digital, 3/2 (L,C,R,l,r) + LFE ch, ~448 kbps
скриншот   скриншот   скриншот   скриншот   скриншот   скриншот  

E:ЗагрузкиПолицейская история 1-4Полицейская история.avi
General
Complete name : E:ЗагрузкиПолицейская история 1-4Полицейская история.avi
Format : AVI
Format/Info : Audio Video Interleave
File size : 1.45 GiB
Duration : 1h 39mn
Overall bit rate : 2 084 Kbps
Movie name : Полицейская история
Director : derdevil13
Writing application : VirtualDubMod 1.5.10.2 (build 2542/release)
Video #0
ID : 0
Format : MPEG-4 Visual
Format profile : Advanced Simple@L5
Format settings, BVOP : 1
Format settings, QPel : No
Format settings, GMC : No warppoints
Format settings, Matrix : Default (MPEG)
Codec ID : XVID
Codec ID/Hint : XviD
Duration : 1h 39mn
Bit rate : 1 627 Kbps
Width : 720 pixels
Height : 304 pixels
Display aspect ratio : 2.35:1
Frame rate : 23.976 fps
Color space : YUV
Chroma subsampling : 4:2:0
Bit depth : 8 bits
Scan type : Progressive
Compression mode : Lossy
Bits/(Pixel*Frame) : 0.310
Stream size : 1.14 GiB (78%)
Writing library : XviD 1.2.1 (UTC 2008-12-04)
Audio #1
ID : 1
Format : AC-3
Format/Info : Audio Coding 3
Mode extension : CM (complete main)
Format settings, Endianness : Big
Codec ID : 2000
Duration : 1h 39mn
Bit rate mode : Constant
Bit rate : 448 Kbps
Channel(s) : 6 channels
Channel positions : Front: L C R, Side: L R, LFE
Sampling rate : 48.0 KHz
Bit depth : 16 bits
Compression mode : Lossy
Stream size : 320 MiB (21%)
Alignment : Split accross interleaves
Interleave, duration : 42 ms (1.00 video frame)
Interleave, preload duration : 500 ms

Полицейская история 2 / Ging chaat goo si juk jaap
Год выпуска: 1988
Страна: Гонконг
Жанр: боевик, триллер, комедия, криминал
Продолжительность: 1:41:40
Перевод: Профессиональный многоголосый, закадровый
Режиссер: Джеки Чан
Продюссер: Леонард Хо, Рэймонд Чоу, Эдвард Танг
Сценарий: Джеки Чан, Эдвард Танг
Премьера в мире: 20 августа 1988

В ролях: Джеки Чан / Jackie Chan, Мэгги Чун / Maggie Cheung, Квок-Хун Лам / Kwok-Hung Lam, Билл Тун / Bill Tung, Бенни Лай / Benny Lai, Джон Чунг / John Cheung, Чарли Чо / Charlie Cho, Юен Чор / Yuen Chor, Бен Лам / Ben Lam, Чи Фай Чан / Chi Fai Chan, Сан Кван / Shan Kwan, Марс / Mars...
Описание: На свободу выходит Босс наркомафии Ку, но наркоторговля не остановлена, и первой его мыслью после заключения — отомстить полицейскому Кевину Ченгу, упрятавшему его за решетку. Ку нанимает киллера, который, впрочем, явно не в себе. Тем временем группа изощренных террористов пугает население серией взрывов в людных местах, и вымогает 10 миллионов долларов у одной торговой фирмы. Справиться с этой ситуацией и спасти любимую девушку под силу только полицейскому Кевину Ченгу.
Качество: DVDRip
Формат: AVI
Видео кодек: XviD
Аудио кодек: AC3
Видео: 704x304 (2.25:1), 25 fps, XviD, 1605 kbps
Аудио: 48 kHz, AC3 Dolby Digital, 3/2 (L,C,R,l,r) + LFE ch, 448.00 kbps
скриншот   скриншот   скриншот   скриншот   скриншот   скриншот  

E:ЗагрузкиПолицейская история 1-4Полицейская история 2.avi
General
Complete name : E:ЗагрузкиПолицейская история 1-4Полицейская история 2.avi
Format : AVI
Format/Info : Audio Video Interleave
File size : 1.46 GiB
Duration : 1h 41mn
Overall bit rate : 2 060 Kbps
Writing application : VirtualDubMod 1.5.10.2 (build 2542/release)
Writing library : VirtualDubMod build 2542/release
Video #0
ID : 0
Format : MPEG-4 Visual
Format profile : Advanced Simple@L5
Format settings, BVOP : 1
Format settings, QPel : No
Format settings, GMC : No warppoints
Format settings, Matrix : Default (MPEG)
Codec ID : XVID
Codec ID/Hint : XviD
Duration : 1h 41mn
Bit rate : 1 603 Kbps
Width : 704 pixels
Height : 304 pixels
Display aspect ratio : 2.35:1
Frame rate : 25.000 fps
Color space : YUV
Chroma subsampling : 4:2:0
Bit depth : 8 bits
Scan type : Progressive
Compression mode : Lossy
Bits/(Pixel*Frame) : 0.300
Stream size : 1.14 GiB (78%)
Writing library : XviD 1.2.1 (UTC 2008-12-04)
Audio #1
ID : 1
Format : AC-3
Format/Info : Audio Coding 3
Mode extension : CM (complete main)
Format settings, Endianness : Big
Codec ID : 2000
Duration : 1h 41mn
Bit rate mode : Constant
Bit rate : 448 Kbps
Channel(s) : 6 channels
Channel positions : Front: L C R, Side: L R, LFE
Sampling rate : 48.0 KHz
Bit depth : 16 bits
Compression mode : Lossy
Stream size : 326 MiB (22%)
Alignment : Split accross interleaves
Interleave, duration : 40 ms (1.00 video frame)
Interleave, preload duration : 500 ms

Полицейская история 3: Суперполицейский / Ging chat goo si 3: Chiu kup ging chat
Год выпуска: 1992
Страна: Гонконг
Жанр: боевик, триллер, комедия, криминал
Продолжительность: 01:39:56
Перевод: Профессиональный многоголосый, Лицензия
Режиссер: Стэнли Тонг
Продюссер: Уилли Чан, Эдвард Танг, Джеки Чан
Сценарий: Эдвард Танг, Фибе Ма, Ли Вэй Йи
Премьера в мире: 4 июля 1992

В ролях: Джеки Чан, Бриджит Лин, Мэгги Чун, Квок-Хун Лам, Билл Тун, Юэнь Чор, Чарли Чо, Чи-Вин Лау, Хак-Он Фанг, Хин Йинг Кэм...
Описание: В результате удачно проведенной облавы в руки полиции попадает босс наркомафии Чи. Одному из полицейских, Кевину, принимавшему непосредственное участие в аресте, поручают охрану секретарши преступника, которая проходит по делу в качестве главного свидетеля. Но в день суда она исчезает. Только разыскав девушку и арестовав Чи, Кевин сможет снять с себя подозрение в соучастии…
Качество: HDRip
Формат: AVI
Видео кодек: XviD
Аудио кодек: AC3
Видео: 720x304 (2.37:1), 23.976 fps, XviD build 50 ~1979 kbps avg, 0.38 bit/pixel
Аудио: 48 kHz, AC3 Dolby Digital, 2/0 (L,R) ch, ~192 kbps
скриншот   скриншот   скриншот   скриншот   скриншот   скриншот  

E:ÇàãðóçêèÏîëèöåéñêàÿ èñòîðèÿ 1-4Ïîëèöåéñêàÿ èñòîðèÿ 3.avi
General
Complete name : E:ÇàãðóçêèÏîëèöåéñêàÿ èñòîðèÿ 1-4Ïîëèöåéñêàÿ èñòîðèÿ 3.avi
Format : AVI
Format/Info : Audio Video Interleave
File size : 1.46 GiB
Duration : 1h 35mn
Overall bit rate : 2 181 Kbps
Movie name : Ïîëèöåéñêàÿ èñòîðèÿ 3
Director : derdevil13
Writing application : VirtualDubMod 1.5.10.2 (build 2540/release)
Video #0
ID : 0
Format : MPEG-4 Visual
Format profile : Advanced Simple@L5
Format settings, BVOP : 1
Format settings, QPel : No
Format settings, GMC : No warppoints
Format settings, Matrix : Default (MPEG)
Codec ID : XVID
Codec ID/Hint : XviD
Duration : 1h 35mn
Bit rate : 1 980 Kbps
Width : 720 pixels
Height : 304 pixels
Display aspect ratio : 2.35:1
Frame rate : 23.976 fps
Color space : YUV
Chroma subsampling : 4:2:0
Bit depth : 8 bits
Scan type : Progressive
Compression mode : Lossy
Bits/(Pixel*Frame) : 0.377
Stream size : 1.33 GiB (91%)
Writing library : XviD 1.2.1 (UTC 2008-12-04)
Audio #1
ID : 1
Format : AC-3
Format/Info : Audio Coding 3
Mode extension : CM (complete main)
Format settings, Endianness : Big
Codec ID : 2000
Duration : 1h 35mn
Bit rate mode : Constant
Bit rate : 192 Kbps
Channel(s) : 2 channels
Channel positions : Front: L R
Sampling rate : 48.0 KHz
Bit depth : 16 bits
Compression mode : Lossy
Stream size : 132 MiB (9%)
Alignment : Split accross interleaves
Interleave, duration : 42 ms (1.00 video frame)
Interleave, preload duration : 500 ms

Первый удар / Ging chaat goo si 4: Ji gaan daan yam mo
Год выпуска: 1996
Страна: США, Австралия, Гонконг
Жанр: боевик, триллер, комедия, криминал
Продолжительность: 01:39:56
Перевод: Профессиональный многоголосый, закадровый
Режиссер: Стэнли Тонг
Продюссер: Барби Танг, Павел Дувидзон, Леонард Хо
Сценарий: Грег Меллот, Эллиот Тонг, Стэнли Тонг
Премьера в мире: 10 февраля 1996

В ролях: Джеки Чан, Энни Ву, Джексон Лиу, Билл Тунг, Юрий Петров, Алан Сит
Описание: Агенту ЦРУ Джеки поручают следить за шпионкой Наташей, которая купила тур на Украину. Джеки надеется выследить, с кем будет контактировать девушка, но она скрывается. Джеки бросается в погоню. Он гонится за ней по Австралии и России. Главная его задача — остаться в живых и поймать Тсуи, сообщника Наташи, похитившего ядерную боеголовку. Тсуи оказывается ее любовником, бывшим сотрудником ЦРУ. Его завербовал сотрудник КГБ Егоров, лидер русской мафии.
Качество: DVDRip
Формат: AVI
Видео кодек: XviD
Аудио кодек: AC3
Видео: 720x304 (2.37:1), 25 fps, XviD build 40 ~1978 kbps avg, 0.36 bit/pixel
Аудио: 48 kHz, AC3 Dolby Digital, 3/2 (L,C,R,l,r) + LFE ch, ~448.00 kbps avg
скриншот   скриншот   скриншот   скриншот   скриншот   скриншот  

E:ÇàãðóçêèÏîëèöåéñêàÿ èñòîðèÿ 1-4Ïåðâûé óäàð - First Strike.avi
General
Complete name : E:ÇàãðóçêèÏîëèöåéñêàÿ èñòîðèÿ 1-4Ïåðâûé óäàð - First Strike.avi
Format : AVI
Format/Info : Audio Video Interleave
File size : 1.37 GiB
Duration : 1h 20mn
Overall bit rate : 2 433 Kbps
Movie name : http://reliztv.com/
Director : http://reliztv.com/
Writing application : VirtualDubMod 1.5.4.1 (build 2178/release)
Comment : http://reliztv.com/
Video #0
ID : 0
Format : MPEG-4 Visual
Format profile : Advanced Simple@L5
Format settings, BVOP : 1
Format settings, QPel : No
Format settings, GMC : No warppoints
Format settings, Matrix : Custom
Codec ID : XVID
Codec ID/Hint : XviD
Duration : 1h 20mn
Bit rate : 1 978 Kbps
Width : 720 pixels
Height : 304 pixels
Display aspect ratio : 2.35:1
Frame rate : 25.000 fps
Color space : YUV
Chroma subsampling : 4:2:0
Bit depth : 8 bits
Scan type : Progressive
Compression mode : Lossy
Bits/(Pixel*Frame) : 0.362
Stream size : 1.11 GiB (81%)
Writing library : XviD 1.1.0 RC (UTC 2005-11-22)
Audio #1
ID : 1
Format : AC-3
Format/Info : Audio Coding 3
Mode extension : CM (complete main)
Format settings, Endianness : Big
Codec ID : 2000
Duration : 1h 20mn
Bit rate mode : Constant
Bit rate : 448 Kbps
Channel(s) : 6 channels
Channel positions : Front: L C R, Side: L R, LFE
Sampling rate : 48.0 KHz
Bit depth : 16 bits
Compression mode : Lossy
Stream size : 257 MiB (18%)
Alignment : Split accross interleaves
Interleave, duration : 96 ms (2.40 video frames)
Interleave, preload duration : 96 ms

pb.wtf



Скачать Полицейская история: Квадрология через торрент http://pic.kartinco.top/images/1/pm13ve7j8f.jpg Скачать фильм Полицейская история: Квадрология через торрент бесплантно в хорошем качестве Описание: В результате удачно проведенной облавы в руки полиции попадает босс наркомафии Чи. Одному из полицейских, Кевину, принимавшему ... 9.9 10 13
Info! Золотая раздача, скачанное не засчитывается.
Торрент: Зарегистрирован [2012-12-30 08:13] · скачан: 189 раз
Статус: √ проверено
Размер: 5.74 GB
Как cкачать? Как скачать Полицейская история: Квадрология через торрент | qTorrent



Последний раз редактировалось: Моряк (2012-12-30 08:31), всего редактировалось 3 раз(а)

28-11-2019 20:33  

Отключить всю рекламу на сайте

30-12-2012 08:22 Полицейская история: Квадрология Скачать торрент  

Последний фильм не имеет отношения кажеться к полицейской историиpb.wtf



30-12-2012 08:25 Полицейская история: Квадрология Скачать торрент  

666gtr666 Посмотри оригинальное название в нём стоит цифра 4 pb.wtf



30-12-2012 12:09 Полицейская история: Квадрология Скачать торрент  

Офигеть Первый удар - это 4 часть. Не чего похожего, а вот Новая полицейская история вот это да, хоть названия похоже))pb.wtf



30-12-2012 13:10 Полицейская история: Квадрология Скачать торрент  

RomanoVlad ну написано что 4:) а новая полицейская просто уже есть на трекере:)pb.wtf



30-12-2012 14:25 Полицейская история: Квадрология Скачать торрент  

RomanoVlad писал(а):

Офигеть Первый удар - это 4 часть. Не чего похожего, а вот Новая полицейская история вот это да, хоть названия похоже))

+100000% "Новая полицейская история" которая не вошла в сей опус, ИМХО фильм У.Г. сопли и слёзы, но кто любит мелодрамы, должно понравится, особенно сюжет, где: Джеки, вывозит на телеги, аля ОБИ - ИКЕЯ, своих собутыль.... простите, напарников по полиции со слезами (горькими) на глазках...pb.wtf



04-02-2015 07:20 Полицейская история: Квадрология Скачать торрент  

встаньте кто-нибудь на раздачуpb.wtf



02-09-2018 17:05 Полицейская история: Квадрология Скачать торрент  

спс!!!!!!!!!!!!!!!!!pb.wtf



    Дорогой пользователь! Огромная просьба, поблагодарите релизера, оцените раздачу и оставьте свои комментарий, если Вы скачали Полицейская история: Квадрология через торрент бесплатно! Внесите свою лепту в развитие PiratBit!
    Комментировать посты могут только пользователи прошедшие не сложную регистрацию
    Показать сообщения:    

    Полицейская история: Квадрология через торрент
    Скачать бесплатно Полицейская история: Квадрология
    Полицейская история: Квадрология скачать торрент
    Полицейская история: Квадрология смотреть онлайн
    Cкачать фильм Полицейская история: Квадрология бесплатно
    Полицейская история: Квадрология скачать торрент в хорошем качестве
    Полицейская история: Квадрология смотреть онлайн бесплатно в хорошем качестве


    Вы не можете начинать темы
    Вы не можете отвечать на сообщения
    Вы не можете редактировать свои сообщения
    Вы не можете удалять свои сообщения
    Вы не можете голосовать в опросах
    Вы не можете прикреплять файлы к сообщениям
    Вы можете скачивать файлы