Ссылка на приватное зеркало нашего сайта всего за 1$. Внимание количество ограничено!!!

2 сезон

iTunes

1 сезон

1

iTunes

iTunes

iTunes

1 сезон

RePack

30

ИГРА 18+

pack

ВАЖНО

!!Акция!!

Alien_RageХит недели

RePack

MK11
pack

Забери бонус

RePack

jed

!!Акция!!

Alien_Rage

RePack

fifa19

RePack

Assassins Creed: Odyssey

RePack

NEED FOR SPEED™ PAYBACK

4 сезон

9 сезон

Бесстыжие 9 сезон

Все сериалы

все сериалы на PB.wtf

RePack

FAR CRY 5
  

Охотник за головами / The Bounty Hunter (Энди Теннант) [2010 г., Комедия, Мелодрама, Боевик, BDRip, DUB (Rus) + DUB (Ukr)] pb.wtf

Охотник за головами через торрент pb.wtf

Размер: 1.46 GB | Добавлен: 7 лет 9 мес. назад | Торрент скачан:636 раз
Скачать  

30-12-2012 22:18 Охотник за головами Скачать торрент  

Охотник за головами / The Bounty Hunter
«Решаю вопросы... Интим не предлагать.»

Год выпуска: 2010
Страна: США
Жанр: Комедия, Мелодрама, Боевик
Продолжительность: 01:50:38
Перевод: Дубляж (Русский) + Дубляж (Украинский)

Режиссер: Энди Теннант
Продюссер: Нил Х. Мориц, Райан Кэвэна, Дональд Дж. Ли мл
Сценарий: Сара Торп

Бюджет: $40 000 000
Премьера в мире: 17 марта 2010

В ролях: Джерард Батлер, Дженнифер Энистон, Джио Перез, Джоэль Гарлэнд, Джейсон Колотурос, Мэтт Мэллой, Джейсон Судейкис, Адам Роуз, Кристин Барански, Дориан Миссик

Описание: Главный герой — Майло, бывший полицейский, а теперь охотник за головами, занимающийся розыском беглых преступников. Он получает задание найти и отправить в тюрьму журналистку Николь, сбежавшую из-под залога. Ирония ситуации в том, что Николь — бывшая жена Майло.

Качество: BDRip (Исходник Blu-ray)
Формат: AVI
Видео кодек: XviD
Аудио кодек: AC3
Видео: 720х304, 23,976 fps, 1485 kbps, 0.283 bit/pixel
Аудио#1: 48 kHz, AC3 2.0, 192.00 kbps / Дубляж (Русский)
Аудио#2: 48 kHz, AC3 2.0, 192.00 kbps / Дубляж (Украинский)
&
Общее
Полное имя : E:Фильмы МThe Bounty Hunter (2010) BDRip (Rus. Ukr).avi
Формат : AVI
Формат/Информация : Audio Video Interleave
Размер файла : 1,46 Гбайт
Продолжительность : 1 ч. 50 м.
Общий поток : 1883 Кбит/сек
Программа кодирования : VirtualDubModRus 1.5.10.2 (build 2542/release)
Библиотека кодирования : VirtualDubMod build 2542/release

Видео
Идентификатор : 0
Формат : MPEG-4 Visual
Профиль формата : Advanced Simple@L5
Параметр BVOP формата : 1
Параметр QPel формата : Нет
Параметр GMC формата : Без точки перехода
Параметр матрицы формата : Выборочная
Режим смешивания : Сжатый битовый поток
Идентификатор кодека : XVID
Идентификатор кодека/Подсказка : XviD
Продолжительность : 1 ч. 50 м.
Битрейт : 1485 Кбит/сек
Ширина : 720 пикселей
Высота : 304 пикселя
Соотношение сторон : 2,35:1
Частота кадров : 23,976 кадра/сек
Цветовое пространство : YUV
Субдискретизация насыщенности : 4:2:0
Битовая глубина : 8 бит
Тип развёртки : Прогрессивная
Метод сжатия : С потерями
Бит/(Пиксели*Кадры) : 0.283
Размер потока : 1,15 Гбайт (79%)
Библиотека кодирования : XviD 65

Аудио #1
Идентификатор : 1
Формат : AC-3
Формат/Информация : Audio Coding 3
Расширение режима : CM (complete main)
Параметр Endianness формата : Big
Идентификатор кодека : 2000
Продолжительность : 1 ч. 50 м.
Вид битрейта : Постоянный
Битрейт : 192 Кбит/сек
Каналы : 2 канала
Расположение каналов : Front: L R
Частота : 48,0 КГц
Битовая глубина : 16 бит
Метод сжатия : С потерями
Размер потока : 152 Мбайт (10%)
Выравнивание : Разделение по промежуткам
Продолжительность промежутка : 42 мс. (1,00 видеокадр)
Время предзагрузки промежутка : 500 мс.
Заголовок : Дубляж (Русский)

Аудио #2
Идентификатор : 2
Формат : AC-3
Формат/Информация : Audio Coding 3
Расширение режима : CM (complete main)
Параметр Endianness формата : Big
Идентификатор кодека : 2000
Продолжительность : 1 ч. 50 м.
Вид битрейта : Постоянный
Битрейт : 192 Кбит/сек
Каналы : 2 канала
Расположение каналов : Front: L R
Частота : 48,0 КГц
Битовая глубина : 16 бит
Метод сжатия : С потерями
Размер потока : 152 Мбайт (10%)
Выравнивание : Разделение по промежуткам
Продолжительность промежутка : 42 мс. (1,00 видеокадр)
Время предзагрузки промежутка : 500 мс.
Заголовок : Дубляж (Украинский)


Охотник за головами скачать торрент


pb.wtf



Скачать Охотник за головами через торрент http://i52.fastpic.ru/big/2012/1231/52/dd90f686abfa10238b6a98a69bd0e552.png Скачать фильм Охотник за головами через торрент бесплантно в хорошем качестве Описание: Главный герой — Майло, бывший полицейский, а теперь охотник за головами, занимающийся розыском беглых преступников. Он получает ... 8.9 10 9
Info! Золотая раздача, скачанное не засчитывается.
Торрент: Зарегистрирован [2012-12-30 22:18] · скачан: 636 раз
Статус: √ проверено
Размер: 1.46 GB
Как cкачать? Как скачать Охотник за головами через торрент | qTorrent

% Раздел Тема Автор DL S | L
Фильмы 2017 [DVDrip, WEB-DLRip, HDrip] (DUB, MVO) [ 2.18 GB ] Бун: Охотник за головами / Boone: The Bounty Hunter [2017 BDRip-AVC] MVO - ExKinoRay Enigma2010 Скачать
14 | 0
T Фильмы (мультфильмы) cо спонсором показа (Новинки AVI/MKV) [ 1.37 GB ] Бун: Охотник за головами / Boone: The Bounty Hunter [2017 HDRip] MVO [@MUZOBOZ@] bober100 Скачать
1 | 0
# Фильмы (мультфильмы) cо спонсором показа (Новинки AVI/MKV) [ 4.08 GB ] Бун: Охотник за головами / Boone: The Bounty Hunter [2017 BDRip 720p] MVO [@MUZOBOZ@] bober100 Скачать
1 | 0
Фильмы 2010 [ 1.46 GB ] Охотник за головами / The Bounty Hunter [2010 BDRip] killermax2013 Скачать
1 | 0
Фильмы [HD 720p, 1080p] (Хороший звук DUB, MVO) [ 5.37 GB ] Охотник за головами / The Bounty Hunter [2010 BDRip 720p] DUB potroks Скачать
1 | 0
Фильмы 2010 [ 2.78 GB ] Охотник за головами / The Bounty Hunter [2010 BDRip-AVC] [720р] DUB + Original + Subs IceDevil71 Скачать
1 | 0
Фильмы 2010 [ 2.05 GB ] Охотник за головами / The Bounty Hunter [2010 DVDRip] Venxxx Скачать
1 | 0


Последний раз редактировалось: bogyn (2012-12-30 22:43), всего редактировалось 1 раз

28-11-2019 20:33  

Отключить всю рекламу на сайте

31-12-2012 09:15 Охотник за головами Скачать торрент  

кульноё кинцо :)pb.wtf



    Дорогой пользователь! Огромная просьба, поблагодарите релизера, оцените раздачу и оставьте свои комментарий, если Вы скачали Охотник за головами через торрент бесплатно! Внесите свою лепту в развитие PiratBit!
    Комментировать посты могут только пользователи прошедшие не сложную регистрацию
    Показать сообщения:    

    Охотник за головами через торрент
    Скачать бесплатно Охотник за головами
    Охотник за головами скачать торрент
    Охотник за головами смотреть онлайн
    Cкачать фильм Охотник за головами бесплатно
    Охотник за головами скачать торрент в хорошем качестве
    Охотник за головами смотреть онлайн бесплатно в хорошем качестве


    Вы не можете начинать темы
    Вы не можете отвечать на сообщения
    Вы не можете редактировать свои сообщения
    Вы не можете удалять свои сообщения
    Вы не можете голосовать в опросах
    Вы не можете прикреплять файлы к сообщениям
    Вы можете скачивать файлы