1 сезон

1 сезон

iTunes

1

КиноПоиск HD

Кинопоиск HD

iTunes

13

1 сезон

RePack

30

Ultimate

ВАЖНО

ИГРА 18+

pack

RePack

MK11
pack

Легкие деньги

RePack

jed

RePack

fifa19

RePack

RDR2

RePack

NEED FOR SPEED™ PAYBACK

4 сезон

9 сезон

Бесстыжие 9 сезон

Все сериалы

все сериалы на PB.wtf

RePack

FAR CRY 5
  
Magnet ссылка

12 рождественских собак / The 12 Dogs of Christmas (Кит Мэрилл) [2005 г., семейный, DVDRip, MVO, лицензия] pb.wtf

12 рождественских собак через торрент pb.wtf

Размер: 1.36 GB | Добавлен: 8 лет 3 мес. назад | Торрент скачан:33 раза
Скачать  

31-12-2012 09:30 12 рождественских собак Скачать торрент  

12 рождественских собак / The 12 Dogs of Christmas

Год выпуска: 2005
Страна: США
Жанр: семейный
Продолжительность: 01:42:56
Перевод: Профессиональный многоголосый, Лицензия

Режиссер: Кит Мэрилл
Продюссер: Шон Ковел, Ken Kragen, Daenen Merrill
Сценарий: Стивен Пол Леива, Emma Kragen, Кит Мэрилл

Бюджет: $2 000 000
Премьера в мире: 1 ноября 2005

Мировой рейтинг IMDB 5.40 (409)


В ролях: Джордан-Клэр Грин, Том Кемп, Сьюзэн Вуд, Адам Хикс, Джим Джекман, Ричард Риле, Роланд Пеллетье, Джон Биллингсли, Кэти Вортингтон, Бонита Фридериси

Описание: 1931 год. Овдовевший и безработный отец маленькой Эммы отправляет свою дочь в Довервилль к тете и обещает приехать за ней на Рождество. Там Эмма со своими новыми друзьями начинает борьбу за спасение приюта для бездомных собак и не дает жителям Довервилля в тяжелое время Великой депрессии забыть о таком светлом празднике, как Рождество.

Качество: DVDRip
Формат: AVI
Видео кодек: XviD
Аудио кодек: MP3
Видео: Xvid,1694кбрs,720x544(4:3) в 25 000 fps
Аудио#1: MP3 ,192кбрs,48.0 KHz, 2 каналов


Полное имя : D:12.rozhdestvenskih.sobak.2005.XviD.DVDRip.fenixclub.avi
Формат : AVI
Формат/Информация : Audio Video Interleave
Размер файла : 1.36 GiB
Продолжительность : 1h 42mn
Общий поток : 1 895 Kbps

Video
Идентификатор : 0
Формат : MPEG-4 Visual
Профиль формата : Advanced Simple@L5
Параметр BVOP формата : 2
Параметр QPel формата : No
Параметр GMC формата : No warppoints
Параметр матрицы формата : Default (H.263)
Идентификатор кодека : XVID
Идентификатор кодека/Подсказка : XviD
Продолжительность : 1h 42mn
Битрейт : 1 694 Kbps
Ширина : 720 pixels
Высота : 544 pixels
Соотношение сторон : 4:3
Частота кадров : 25.000 fps
Цветовое пространство : YUV
Субдискретизация насыщенности : 4:2:0
Битовая глубина : 8 bits
Тип развёртки : Progressive
Метод сжатия : Lossy
Бит/(Пиксели*Кадры) : 0.173
Размер потока : 1.22 GiB (89%)
Библиотека кодирования : XviD 1.2.1 (UTC 2008-12-04)

Audio
Идентификатор : 1
Формат : MPEG Audio
Версия формата : Version 1
Профиль формата : Layer 3
Идентификатор кодека : 55
Идентификатор кодека/Подсказка : MP3
Продолжительность : 1h 42mn
Продолжительность оригинала : 1h 42mn
Вид битрейта : Constant
Битрейт : 192 Kbps
Каналы : 2 channels
Частота : 48.0 KHz
Метод сжатия : Lossy
Размер потока : 141 MiB (10%)
Выравнивание : Aligned on interleaves
Продолжительность промежутка : 40 ms (1.00 video frame)


12 рождественских собак скачать торрент


pb.wtf



Скачать 12 рождественских собак через торрент https://pic.kartinco.top/images/1/tgwkj26bbr.jpg Скачать фильм 12 рождественских собак через торрент бесплантно в хорошем качестве Описание: 1931 год. Овдовевший и безработный отец маленькой Эммы отправляет свою дочь в Довервилль к тете и обещает приехать за ней на ... 10 10 2
Info! Золотая раздача, скачанное не засчитывается.
Торрент: Зарегистрирован [2012-12-31 09:30] · скачан: 33 раз
Статус: √ проверено
Размер: 1.36 GB
Как cкачать? Как скачать 12 рождественских собак через торрент | UTorrent



Последний раз редактировалось: ALIK1989 (2012-12-31 13:12), всего редактировалось 4 раз(а)

28-11-2019 20:33  

Отключить всю рекламу на сайте

31-12-2012 09:36 12 рождественских собак Скачать торрент  

Убираем ссылку на сторонний ресурс с обложки.pb.wtf



31-12-2012 10:07 12 рождественских собак Скачать торрент  

всем с наступающим!!!! приходящий год змеи удаче успехи во всем. Скора появится 12 рождественских собак 2pb.wtf



    Дорогой пользователь! Огромная просьба, поблагодарите релизера, оцените раздачу и оставьте свои комментарий, если Вы скачали 12 рождественских собак через торрент бесплатно! Внесите свою лепту в развитие PiratBit!
    Комментировать посты могут только пользователи прошедшие не сложную регистрацию
    Показать сообщения:    

    12 рождественских собак через торрент
    Скачать бесплатно 12 рождественских собак
    12 рождественских собак скачать торрент
    12 рождественских собак смотреть онлайн
    Cкачать фильм 12 рождественских собак бесплатно
    12 рождественских собак скачать торрент в хорошем качестве
    12 рождественских собак смотреть онлайн бесплатно в хорошем качестве


    Вы не можете начинать темы
    Вы не можете отвечать на сообщения
    Вы не можете редактировать свои сообщения
    Вы не можете удалять свои сообщения
    Вы не можете голосовать в опросах
    Вы не можете прикреплять файлы к сообщениям
    Вы можете скачивать файлы